(Pop) Татьяна Овсиенко - Время - 2013, FLAC (image+.cue), lossless

Ответить на тему
 
Автор Сообщение

2v2w ®

Стаж: 7 лет 2 месяца

Сообщений: 1913

Создавать темы 22-Апр-2013 22:09

[Цитировать]

--Татьяна Овсиенко - Время-- Жанр: Pop
Страна-производитель диска: Россия
Год издания диска: 2013
Издатель (лейбл): Союз
Номер по каталогу: SZCD-6180-13
Аудио кодек: FLAC
Тип рипа: image+.cue
Битрейт аудио: lossless
Продолжительность: 00:40:11
Наличие сканов в содержимом раздачи: 600 dpi, JPG
Треклист:


01. Ты да я
02. Зови меня
03. Три часа
04. Тому, кого люблю
05. Белая вьюга
06. Пополам
07. Свет
08. Дождь
09. Забыть тебя
10. Надоело
11. Еще один шаг
12. Время
Отчёт EAC
Exact Audio Copy V0.99 prebeta 5 from 4. May 2009
EAC extraction logfile from 22. April 2013, 22:16
Татьяна Овсиенко / Время
Used drive : PLEXTOR CD-R PX-W5224A Adapter: 4 ID: 2
Read mode : Secure
Utilize accurate stream : Yes
Defeat audio cache : Yes
Make use of C2 pointers : No
Read offset correction : 30
Overread into Lead-In and Lead-Out : Yes
Fill up missing offset samples with silence : Yes
Delete leading and trailing silent blocks : No
Null samples used in CRC calculations : Yes
Used interface : Installed external ASPI interface
Used output format : Internal WAV Routines
Sample format : 44.100 Hz; 16 Bit; Stereo
TOC of the extracted CD
Track | Start | Length | Start sector | End sector
---------------------------------------------------------
1 | 0:00.00 | 2:50.63 | 0 | 12812
2 | 2:50.63 | 2:54.29 | 12813 | 25891
3 | 5:45.17 | 3:27.62 | 25892 | 41478
4 | 9:13.04 | 4:06.29 | 41479 | 59957
5 | 13:19.33 | 3:11.39 | 59958 | 74321
6 | 16:30.72 | 3:35.60 | 74322 | 90506
7 | 20:06.57 | 3:05.46 | 90507 | 104427
8 | 23:12.28 | 3:05.64 | 104428 | 118366
9 | 26:18.17 | 3:41.65 | 118367 | 135006
10 | 30:00.07 | 3:20.13 | 135007 | 150019
11 | 33:20.20 | 3:27.35 | 150020 | 165579
12 | 36:47.55 | 3:23.61 | 165580 | 180865
Range status and errors
Selected range
Filename M:\FLAC (bruk67)\MP3\Татьяна Овсиенко - Время (2013) FLAC\Татьяна Овсиенко - Время.wav
Peak level 100.0 %
Range quality 100.0 %
Test CRC 3B953EC4
Copy CRC 3B953EC4
Copy OK
No errors occurred
AccurateRip summary
Track 1 not present in database
Track 2 not present in database
Track 3 not present in database
Track 4 not present in database
Track 5 not present in database
Track 6 not present in database
Track 7 not present in database
Track 8 not present in database
Track 9 not present in database
Track 10 not present in database
Track 11 not present in database
Track 12 not present in database
None of the tracks are present in the AccurateRip database
End of status report

[Профиль] [ЛС]
Показать сообщения:    
Ответить на тему

Текущее время: 08-Дек 13:23

Часовой пояс: UTC + 4



Вы не можете начинать темы
Вы не можете отвечать на сообщения
Вы не можете редактировать свои сообщения
Вы не можете удалять свои сообщения
Вы не можете голосовать в опросах
Вы не можете прикреплять файлы к сообщениям
Вы не можете скачивать файлы