Это все еда (Слово на букву "е") 4 / The F Word 4 (1-8 эпизоды из 12) [2008, кулинария, IPTVRip, RUS]

Ответить на тему
 
Автор Сообщение

Koralina ®

Стаж: 6 лет 5 месяцев

Сообщений: 3307

Создавать темы 05-Фев-2013 22:20

[Цитировать]

Это все еда (Слово на букву "е") 4 / The F Word 4
Страна: Великобритания
Тематика: кулинария
Тип раздаваемого материала: шоу
Продолжительность: ~ 45 мин. на эпизод
Год выпуска: 2008
Язык: Русский
Перевод: Профессиональный (двухголосый)
Описание: The F Word — известное кулинарное телешоу Гордона Рамзи, идущее на британском Channel 4 начиная с 2005 года. Как и прочие телешоу Рамзи, основной объект интереса в шоу — пища, однако, отсутствует фокус на Высокой кухне(Haute cuisine), как во многих других телепередачах Рамзи. Основная идея телешоу: доказать зрителю, что приготовление вкусной и здоровой пищи вовсе не требует большого количества времени, энергии или затрат.
Доп. информация: В раздаче 1-8 эпизоды: непережатый поток с IPTV трансляции с канала "Кухня"(остальные серии сезона канал "Кухня" не показывал).
Качество: IPTVRip
Формат: MPG
Видео кодек: MPEG2
Аудио кодек: MP2
Видео: MPEG2 Video, 704x576(4:3), 25fps, ~ 2 800 Kbps
Аудио: MPEG Audio, 48000Hz, stereo, 192kbps
s4e01.mpg.MediaInfo
General
Complete name : E:\Serial\The F Word\The F Word S04\s4e01.mpg
Format : MPEG-PS
File size : 1.06 GiB
Duration : 48mn 32s
Overall bit rate mode : Variable
Overall bit rate : 3 129 Kbps
Video
ID : 224 (0xE0)
Format : MPEG Video
Format version : Version 2
Format profile : Main@Main
Format settings, BVOP : Yes
Format settings, Matrix : Custom
Format settings, GOP : M=3, N=18
Duration : 48mn 32s
Bit rate mode : Variable
Bit rate : 2 875 Kbps
Maximum bit rate : 15.0 Mbps
Width : 704 pixels
Height : 576 pixels
Display aspect ratio : 4:3
Frame rate : 25.000 fps
Standard : PAL
Color space : YUV
Chroma subsampling : 4:2:0
Bit depth : 8 bits
Scan type : Interlaced
Scan order : Top Field First
Compression mode : Lossy
Bits/(Pixel*Frame) : 0.284
Stream size : 998 MiB (92%)
Matrix coefficients : BT.601
Audio
ID : 192 (0xC0)
Format : MPEG Audio
Format version : Version 1
Format profile : Layer 2
Duration : 48mn 32s
Bit rate mode : Constant
Bit rate : 192 Kbps
Channel(s) : 2 channels
Sampling rate : 48.0 KHz
Compression mode : Lossy
Stream size : 66.7 MiB (6%)
Скриншоты
Загрузка...
[Профиль] [ЛС]
Показать сообщения:    
Ответить на тему

Текущее время: 17-Ноя 19:32

Часовой пояс: UTC + 4



Вы не можете начинать темы
Вы не можете отвечать на сообщения
Вы не можете редактировать свои сообщения
Вы не можете удалять свои сообщения
Вы не можете голосовать в опросах
Вы не можете прикреплять файлы к сообщениям
Вы не можете скачивать файлы