Секретные материалы шоу-бизнеса (Эфир от 11-12-2012) [2012, Документальный, SATRip]

Ответить на тему
 
Автор Сообщение

Koralina ®

Стаж: 7 лет 8 месяцев

Сообщений: 2785

Создавать темы 16-Янв-2013 18:49

[Цитировать]

Секретные материалы шоу-бизнеса (Эфир от 11-12-2012)
Год выпуска: 2012
Страна: Россия
Жанр: Документальный
Продолжительность: 00:48:22
Перевод: Не требуется
Описание: Новый проект, в котором звезды сами расскажут всю правду. И не только про себя, а еще и про коллег по цеху! Под прицелом камер — звездные преступления, дети, болезни, деньги, недвижимость, бизнес… И, конечно, любовь и секс. Вся изнанка шоу-бизнеса, честно и без купюр!
Качество: SATRip
Формат: AVI
Видео кодек: XVID
Аудио кодек: MP3
Видео: XVID 720x400 25.00fps 1502 kbps
Аудио: MPEG Audio Layer 3 48000Hz stereo 128kbps
MI
ОбщееПолное имя : E:\Downloads\СЕКРЕТНЫЕ МАТЕРИАЛЫ ШОУ БИЗНЕСА\Sekretnye.materialy.shou.biznesa.11.12.2012.SATRip.aviФормат : AVIФормат/Информация : Audio Video InterleaveРазмер файла : 563 МбайтПродолжительность : 48 м.Общий поток : 1639 Кбит/секБиблиотека кодирования : VirtualDub build 24442/release
ВидеоИдентификатор : 0Формат : MPEG-4 VisualПрофиль формата : Advanced Simple@L5Параметр BVOP формата : 2Параметр QPel формата : НетПараметр GMC формата : Без точки переходаПараметр матрицы формата : Default (MPEG)Идентификатор кодека : XVIDИдентификатор кодека/Подсказка : XviDПродолжительность : 48 м.Битрейт : 1502 Кбит/секШирина : 720 пикс.Высота : 400 пикс.Соотношение сторон : 16:9Частота кадров : 25,000 кадр/секЦветовое пространство : YUVПодвыборка цветности : 4:2:0Битовая глубина : 8 битТип развёртки : ПрогрессивнаяМетод сжатия : С потерямиБит/(Пиксели*Кадры) : 0.209Размер потока : 516 Мбайт (92%)Библиотека кодирования : XviD 1.2.1 (UTC 2008-12-04)
АудиоИдентификатор : 1Формат : MPEG AudioВерсия формата : Version 1Профиль формата : Layer 3Режим : Joint stereoРасширение режима : MS StereoИдентификатор кодека : 55Идентификатор кодека/Подсказка : MP3Продолжительность : 48 м.Вид битрейта : ПостоянныйБитрейт : 128 Кбит/секКаналы : 2 каналаЧастота : 48,0 КГцМетод сжатия : С потерямиРазмер потока : 44,0 Мбайт (8%)Выравнивание : Разделение по промежуткамПродолжительность промежутка : 40 мс. (1,00 видеокадр)Время предзагрузки промежутка : 500 ms
Релиз: РиперАм
Эфир от 11-12-2012 Скриншоты
[Профиль] [ЛС]
Показать сообщения:    
Ответить на тему

Текущее время: 28-Фев 12:13

Часовой пояс: UTC + 4



Вы не можете начинать темы
Вы не можете отвечать на сообщения
Вы не можете редактировать свои сообщения
Вы не можете удалять свои сообщения
Вы не можете голосовать в опросах
Вы не можете прикреплять файлы к сообщениям
Вы не можете скачивать файлы