Две жизни Джорджа Блейка, или агент КГБ на службе Ее Величества (Сергей Нейлау) [2012, Документальный, DVB]

Ответить на тему
 
Автор Сообщение

Koralina ®

Стаж: 7 лет 8 месяцев

Сообщений: 2785

Создавать темы 16-Янв-2013 16:57

[Цитировать]

Две жизни Джорджа Блейка, или агент КГБ на службе Ее Величества
Год выпуска: 2012
Производство: ТРК ВС РФ Звезда
Жанр: Документальный
Продолжительность: 00:51:33
Перевод: Не требуется
Русские субтитры: нет
Автор и ведущий: Алексей Рафаенко
Режиссер: Сергей Нейлау
Описание: В 2012-м году Георгию Ивановичу Бехтеру исполнилось девяносто. Его история полвека назад потрясла весь мир, разрываемый в то время распрями «холодной» войны». 42 года заключения - самое суровое наказание за шпионаж в Великобритании. Тогда Георгий Бехтер был Джорджем Блейком, успешным офицером британской разведки – Сикрет Интелидженс Сервис. И, по совместительству, агентом советского Комитета Государственной Безопасности. Он передал в СССР сотни секретных документов. Раскрыл наиболее хитроумную совместную операцию СИС и ЦРУ. Его не интересовали деньги. Им не управляли амбиции. Он не считал и не считает себя предателем. Всегда верил в идею. В Идею с большой буквы. Поскольку действовал не во благо конкретной страны, а во имя человечества.

качество: DVB
формат: MPG
видеокодек: MPEG2
аудиокодек: MP2
Видео: MPEG2 Video 720x576 (4:3)25.00fps Bit rate 2688 Kbps Bits/(Pixel*Frame) 0.265
Аудио: МР2 48000Hz 2ch. 128Kbps
MediaInfo
General
Complete name : D:\Torrent\Две жизни Джорджа Блейка, или агент КГБ на службе Ее Величества.mpg
Format : MPEG-PS
File size : 1.03 GiB
Duration : 51mn 33s
Overall bit rate : 2 873 Kbps
Writing library : (c) 1998-2012 Womble Multimedia, Inc. / MPEG Video Wizard DVD 5.0.1.100 (03/2011) / Sep 7 2012
Video
ID : 224 (0xE0)
Format : MPEG Video
Format version : Version 2
Format profile : Main@Main
Format settings, BVOP : Yes
Format settings, Matrix : Default
Format settings, GOP : M=3, N=24
Duration : 51mn 33s
Bit rate mode : Variable
Bit rate : 2 688 Kbps
Nominal bit rate : 15.0 Mbps
Width : 704 pixels
Height : 576 pixels
Display aspect ratio : 4:3
Frame rate : 25.000 fps
Standard : PAL
Color space : YUV
Chroma subsampling : 4:2:0
Bit depth : 8 bits
Scan type : Interlaced
Scan order : Top Field First
Bits/(Pixel*Frame) : 0.265
Stream size : 991 MiB (94%)
Writing library : (c) 1998-2012 Womble Multimedia, Inc. / MPEG Video Wizard DVD 5.0.1.100 (03/2011) / Sep 7 2012
Audio
ID : 192 (0xC0)
Format : MPEG Audio
Format version : Version 1
Format profile : Layer 2
Duration : 51mn 33s
Bit rate mode : Constant
Bit rate : 128 Kbps
Channel(s) : 2 channels
Sampling rate : 48.0 KHz
Video delay : -80ms
Stream size : 47.2 MiB (4%)
Скриншоты
[Профиль] [ЛС]
Показать сообщения:    
Ответить на тему

Текущее время: 29-Фев 14:29

Часовой пояс: UTC + 4



Вы не можете начинать темы
Вы не можете отвечать на сообщения
Вы не можете редактировать свои сообщения
Вы не можете удалять свои сообщения
Вы не можете голосовать в опросах
Вы не можете прикреплять файлы к сообщениям
Вы не можете скачивать файлы