(Happy Hardcore) Beat Experience Featuring Sonio ‎– The Hymn Of G-Move (Maxi CD) - 1997, (image+.cue), lossless

Ответить на тему
 
Автор Сообщение

Koralina ®

Стаж: 8 лет 3 месяца

Сообщений: 2784

Создавать темы 04-Янв-2013 10:43

[Цитировать]

Beat Experience Featuring Sonio ‎– The Hymn Of G-Move (Maxi CD)
Жанр: Happy Hardcore
Страна-производитель диска: Germany
Год издания: 1997
Издатель (лейбл): Tunnel Records
Номер по каталогу: TR 2005
Аудиокодек: FLAC (*.flac)
Тип рипа: image+.cue
Битрейт аудио: lossless
Продолжительность: 19:27
Источник (релизер): Собственный рип
Наличие сканов в содержимом раздачи: да
Треклист:
1 The Hymn Of G-Move 3:11
2 Slow Drive 4:58
3 Global Drive 6:12
4 The Hymn Of G-Move (Extended Version) 5:03
Лог создания рипа
Exact Audio Copy V1.0 beta 2 from 29. April 2011
Отчёт EAC об извлечении, выполненном 3. января 2013, 8:22
Beat Experience feat. Soniq / The Hymn Of G-Move
Дисковод: Optiarc DVD RW AD-7200S Adapter: 2 ID: 0
Режим чтения : Достоверность
Использование точного потока : Да
Отключение кэша аудио : Да
Использование указателей C2 : Нет
Коррекция смещения при чтении : 48
Способность читать области Lead-in и Lead-out : Нет
Заполнение пропущенных сэмплов тишиной : Да
Удаление блоков с тишиной в начале и конце : Нет
При вычислениях CRC использовались нулевые сэмплы : Да
Интерфейс : Встроенный Win32-интерфейс для Win NT/2000
Выходной формат : Пользовательский кодировщик
Выбранный битрейт : 1024 kBit/s
Качество : Высокий
Добавление ID3-тега : Да
Утилита сжатия : C:\Program Files\Exact Audio Copy\FLAC\FLAC.EXE
Дополнительные параметры : -6 -V -T "ARTIST=%artist%" -T "TITLE=%title%" -T "ALBUM=%albumtitle%" -T "DATE=%year%" -T "TRACKNUMBER=%tracknr%" -T "GENRE=%genre%" -T "COMMENT=%comment%" -T "BAND=%albuminterpret%" -T "COMPOSER=%composer%" %haslyrics%--tag-from-
TOC извлечённого CD
Трек | Старт | Длительность | Начальный сектор | Конечный сектор
---------------------------------------------------------------------
1 | 0:00.00 | 3:12.72 | 0 | 14471
2 | 3:12.72 | 4:59.04 | 14472 | 36900
3 | 8:12.01 | 6:15.00 | 36901 | 65025
4 | 14:27.01 | 5:06.10 | 65026 | 87985
Характеристики диапазона извлечения и сообщения об ошибках
Выбранный диапазон
Имя файла C:\Documents and Settings\vova\Рабочий стол\Beat Experience feat. Soniq - The Hymn Of G-Move.wav
Пиковый уровень 99.9 %
Скорость извлечения 3.0 X
Качество диапазона 100.0 %
CRC теста 096ED1DB
CRC копии 096ED1DB
Копирование... OK
Ошибок не произошло
AccurateRip: сводка
Трек 1 отсутствует в базе данных
Трек 2 отсутствует в базе данных
Трек 3 отсутствует в базе данных
Трек 4 отсутствует в базе данных
Ни одного трека нет в базе AccurateRip
Конец отчёта
Доп. информация: http://www.discogs.com/Beat-Experience-2-Featuring-.../release/1226711
[Профиль] [ЛС]
Показать сообщения:    
Ответить на тему

Текущее время: 28-Сен 16:59

Часовой пояс: UTC + 3



Вы не можете начинать темы
Вы не можете отвечать на сообщения
Вы не можете редактировать свои сообщения
Вы не можете удалять свои сообщения
Вы не можете голосовать в опросах
Вы не можете прикреплять файлы к сообщениям
Вы не можете скачивать файлы