32 декабря (Александр Муратов) [2004 г., Комедия, DVDRip]

Ответить на тему
 
Автор Сообщение

Диман ®

Стаж: 5 лет 11 месяцев

Сообщений: 352

Создавать темы 15-Дек-2012 04:11

[Цитировать]

Год выпуска: 2004
Страна: Россия
Жанр: Комедия
Продолжительность: 2x~00:50:00
Перевод:Не требуется
Режиссер: Александр Муратов
В ролях: Армен Джигарханян, Андрей Мягков, Ада Роговцева, Николай Караченцев, Владимир Меньшов, Алексей Чадов, Юрий Беляев, Евгения Добровольская, Сергей Угрюмов, Лариса Кузнецова, Виктор Раков, Светлана Свибильская, Ольга Сутулова, Сергей Астахов, Федор Добронравов, Светлана Антонова, Егор Пазенко, Алла Юганова, Любовь Руднева, Василий Слюсаренко Описание: В уютном загородном пансионе для пожилых людей трое неразлучных приятелей - Сергей Петрович, отец помощника самого премьер-министра, отставной гипнотизер Карен Завенович и очаровательная Маргарита Николаевна готовятся к встрече Нового года. Они немного грустят, подшучивают друг над другом и пишут письма Санта-Клаусу (его легче застать трезвым, чем Деда Мороза). Но случается невероятное: странным образом к Карену Завеновичу возвращается дар Калиостро. Тут-то и начинают происходить самые неожиданные и невероятные события… В канун праздника, когда возможны любые чудеса и в воздухе витает волшебство, трое друзей загадывают самое сокровенное желание - стать на одну ночь молодыми. И когда с последним ударом часов их желание неожиданно исполняется, трое друзей получают невероятный шанс сделать то, о чем они мечтали всю жизнь... Качество: DVDRip
Формат: AVI
Видео кодек: XviD
Аудио кодек: AC3
Видео: 704x432, ~1440 кб/с
Аудио: AC3, 6ch, ~448 кб/с
MediaInfo
Общее
Полное имя : 32.Dekabrya.2004\1 серия.avi
Формат : AVI
Формат/Информация : Audio Video Interleave
Размер файла : 683 Мбайт
Продолжительность : 51 м.
Общий поток : 1847 Кбит/сек
Программа кодирования : VirtualDubMod 1.5.4.1 (build 2178/release)
Библиотека кодирования : VirtualDubMod build 2178/release
Видео
Идентификатор : 0
Формат : MPEG-4 Visual
Профиль формата : Advanced Simple@L5
Параметр BVOP формата : 1
Параметр QPel формата : Нет
Параметр GMC формата : Без точки перехода
Параметр матрицы формата : Выборочная
Идентификатор кодека : XVID
Идентификатор кодека/Подсказка : XviD
Продолжительность : 51 м.
Битрейт : 1391 Кбит/сек
Ширина : 704 пикселя
Высота : 432 пикселя
Соотношение сторон : 1,630
Частота кадров : 29,970 кадров/сек
Цветовое пространство : YUV
Субдискретизация насыщенности : 4:2:0
Битовая глубина : 8 бит
Тип развёртки : Прогрессивная
Метод сжатия : С потерями
Бит/(Пиксели*Кадры) : 0.153
Размер потока : 515 Мбайт (75%)
Библиотека кодирования : XviD 64
Аудио
Идентификатор : 1
Формат : AC-3
Формат/Информация : Audio Coding 3
Расширение режима : CM (complete main)
Параметр Endianness формата : Big
Идентификатор кодека : 2000
Продолжительность : 51 м.
Вид битрейта : Постоянный
Битрейт : 448 Кбит/сек
Каналы : 6 каналов
Расположение каналов : Front: L C R, Side: L R, LFE
Частота : 48,0 КГц
Битовая глубина : 16 бит
Метод сжатия : С потерями
Размер потока : 166 Мбайт (24%)
Выравнивание : Разделение по промежуткам
Продолжительность промежутка : 96 мс. (2,88 видеокадра)
Время предзагрузки промежутка : 96 мс.
Язык : Russian
Общее
Полное имя : 32.Dekabrya.2004\2 серия.avi
Формат : AVI
Формат/Информация : Audio Video Interleave
Размер файла : 671 Мбайт
Продолжительность : 48 м.
Общий поток : 1938 Кбит/сек
Программа кодирования : VirtualDubMod 1.5.4.1 (build 2178/release)
Библиотека кодирования : VirtualDubMod build 2178/release
Видео
Идентификатор : 0
Формат : MPEG-4 Visual
Профиль формата : Advanced Simple@L5
Параметр BVOP формата : 1
Параметр QPel формата : Нет
Параметр GMC формата : Без точки перехода
Параметр матрицы формата : Выборочная
Идентификатор кодека : XVID
Идентификатор кодека/Подсказка : XviD
Продолжительность : 48 м.
Битрейт : 1482 Кбит/сек
Ширина : 704 пикселя
Высота : 432 пикселя
Соотношение сторон : 1,630
Частота кадров : 29,970 кадров/сек
Цветовое пространство : YUV
Субдискретизация насыщенности : 4:2:0
Битовая глубина : 8 бит
Тип развёртки : Прогрессивная
Метод сжатия : С потерями
Бит/(Пиксели*Кадры) : 0.163
Размер потока : 513 Мбайт (76%)
Библиотека кодирования : XviD 64
Аудио
Идентификатор : 1
Формат : AC-3
Формат/Информация : Audio Coding 3
Расширение режима : CM (complete main)
Параметр Endianness формата : Big
Идентификатор кодека : 2000
Продолжительность : 48 м.
Вид битрейта : Постоянный
Битрейт : 448 Кбит/сек
Каналы : 6 каналов
Расположение каналов : Front: L C R, Side: L R, LFE
Частота : 48,0 КГц
Битовая глубина : 16 бит
Метод сжатия : С потерями
Размер потока : 155 Мбайт (23%)
Выравнивание : Разделение по промежуткам
Продолжительность промежутка : 96 мс. (2,88 видеокадра)
Время предзагрузки промежутка : 96 мс.
Язык : Russian
Скриншоты





Всех с Новым 2013 годом!!!


Последний раз редактировалось: Диман (2013-01-10 01:20), всего редактировалось 1 раз
[Профиль] [ЛС]

UralSOFT

Стаж: 6 лет 1 месяц

Сообщений: 1860

Создавать темы 15-Дек-2012 05:20 (спустя 1 час 9 минут)

[Цитировать]

Не плохо....
[Профиль] [ЛС]

Диман ®

Стаж: 5 лет 11 месяцев

Сообщений: 352

Создавать темы 17-Дек-2012 00:59 (спустя 1 день 19 часов)

[Цитировать]

Не плохо....
Спасибо!!! bs aa
[Профиль] [ЛС]

ppdev

Стаж: 3 года 1 месяц

Сообщений: 12

Создавать темы 26-Мар-2018 20:11 (спустя 5 лет 3 месяца)

[Цитировать]

Как фильм? Пойдет на вечер посмотреть?
[Профиль] [ЛС]
Показать сообщения:    
Ответить на тему

Текущее время: 16-Июл 14:42

Часовой пояс: UTC + 4



Вы не можете начинать темы
Вы не можете отвечать на сообщения
Вы не можете редактировать свои сообщения
Вы не можете удалять свои сообщения
Вы не можете голосовать в опросах
Вы не можете прикреплять файлы к сообщениям
Вы не можете скачивать файлы