Английская Премьер-лига 2021/2022. 4й тур. Манчестер Юнайтед - Ньюкасл Юнайтед (11.09.2021) HDTVRip [H.264/720p-LQ] [hand made 50fps]

Ответить на тему
 
Автор Сообщение

Luka_2021 ®

Стаж: 26 дней

Сообщений: 49

Создавать темы 13-Сен-2021 10:31

[Цитировать]

- Английская Премьер-лига 2021/2022. 4й тур. Манчестер Юнайтед - Ньюкасл Юнайтед (11.09.2021) HDTVRip [H.264/720p-LQ]- Комментатор: Иван Громиков, Дмитрий Джулай
Телекомпания: Setanta Live
Жанр: Спорт, Футбол
Описание:
Английская Премьер-лига 2021/2022. 4й тур. Манчестер Юнайтед - Ньюкасл Юнайтед (11.09.2021)
СУДЬЯ Тэйлор Энтони (Вайсеншэйв)
СТАДИОН «Олд Траффорд» (Манчестер) Зрителей: 72732
Релиз от: dav7dbecks
Продолжительность: 01:45:27
Качество видео: HDTVRip
Язык озвучки: Русский, украинский
Субтитры: отсутствуют
Видео: AVC/H.264, 1280x720, ~4125 kbps, 50fps
Аудио 1: AC3, 2 ch, 128 kbps - Русский
Аудио 2: AC3, 2 ch, 128 kbps - Украинский
MediaInfo:
Общее
Уникальный идентификатор                 : 133325235193395022002979232158955609246 (0x644D819B9350FA3C0E0CC87B5EB81C9E)
Полное имя                               : C:\Users\Andrey\Desktop\КХЛ\2021.09.11_EPL_2021_22_R.04_Manchester_United_vs_Newcastle_United.mkv
Формат                                   : Matroska
Версия формата                           : Version 4
Размер файла                             : 3,29 Гбайт
Продолжительность                        : 1 ч. 45 м.
Общий поток                              : 4 470 Кбит/сек
Программа кодирования                    : Lavf59.4.101
Библиотека кодирования                   : Lavf59.4.101
ErrorDetectionType                       : Per level 1
Видео
Идентификатор                            : 1
Формат                                   : AVC
Формат/Информация                        : Advanced Video Codec
Профиль формата                          : [url=mailto:High@L4.1]High@L4.1[/url]
Настройки формата                        : CABAC / 4 Ref Frames
Параметр CABAC формата                   : Да
Параметр RefFrames формата               : 4 кадра
Идентификатор кодека                     : V_MPEG4/ISO/AVC
Продолжительность                        : 1 ч. 45 м.
Битрейт                                  : 4 125 Кбит/сек
Ширина                                   : 1 280 пикселей
Высота                                   : 720 пикселей
Соотношение сторон                       : 16:9
Режим частоты кадров                     : Переменный
Цветовое пространство                    : YUV
Субдискретизация насыщенности            : 4:2:0
Битовая глубина                          : 8 бит
Тип развёртки                            : Прогрессивная
Размер потока                            : 3,04 Гбайт (92%)
Библиотека кодирования                   : x264 core 164 r3065 ae03d92
Настройки программы                      : cabac=1 / ref=3 / deblock=1:-1:-1 / analyse=0x3:0x113 / me=hex / subme=7 / psy=1 / psy_rd=1.00:0.15 / mixed_ref=1 / me_range=16 / chroma_me=1 / trellis=1 / 8x8dct=1 / cqm=0 / deadzone=21,11 / fast_pskip=1 / chroma_qp_offset=-3 / threads=22 / lookahead_threads=3 / sliced_threads=0 / nr=0 / decimate=1 / interlaced=0 / bluray_compat=0 / constrained_intra=0 / bframes=3 / b_pyramid=2 / b_adapt=1 / b_bias=0 / direct=1 / weightb=1 / open_gop=0 / weightp=2 / keyint=250 / keyint_min=25 / scenecut=40 / intra_refresh=0 / rc_lookahead=40 / rc=crf / mbtree=1 / crf=19.5 / qcomp=0.60 / qpmin=0 / qpmax=69 / qpstep=4 / vbv_maxrate=3500 / vbv_bufsize=2000 / crf_max=22.0 / nal_hrd=none / filler=0 / ip_ratio=1.40 / aq=1:1.00
Default                                  : Да
Forced                                   : Нет
Цветовой диапазон                        : Limited
Основные цвета                           : BT.709
Характеристики трансфера                 : BT.709
Коэффициенты матрицы                     : BT.709
Аудио #1
Идентификатор                            : 2
Формат                                   : AC-3
Формат/Информация                        : Audio Coding 3
Коммерческое название                    : Dolby Digital
Идентификатор кодека                     : A_AC3
Продолжительность                        : 1 ч. 45 м.
Вид битрейта                             : Постоянный
Битрейт                                  : 128 Кбит/сек
Каналы                                   : 2 канала
Channel layout                           : L R
Частота                                  : 48,0 КГц
Частота кадров                           : 31,250 кадров/сек (1536 SPF)
Битовая глубина                          : 32 бит
Метод сжатия                             : С потерями
Размер потока                            : 96,6 Мбайт (3%)
Библиотека кодирования                   : Lavc59.3.102 ac3
Язык                                     : Russian
Service kind                             : Complete Main
Default                                  : Да
Forced                                   : Нет
Аудио #2
Идентификатор                            : 3
Формат                                   : AC-3
Формат/Информация                        : Audio Coding 3
Коммерческое название                    : Dolby Digital
Идентификатор кодека                     : A_AC3
Продолжительность                        : 1 ч. 45 м.
Вид битрейта                             : Постоянный
Битрейт                                  : 128 Кбит/сек
Каналы                                   : 2 канала
Channel layout                           : L R
Частота                                  : 48,0 КГц
Частота кадров                           : 31,250 кадров/сек (1536 SPF)
Битовая глубина                          : 32 бит
Метод сжатия                             : С потерями
Размер потока                            : 96,6 Мбайт (3%)
Библиотека кодирования                   : Lavc59.3.102 ac3
Язык                                     : Ukrainian
Service kind                             : Complete Main
Default                                  : Нет
Forced                                   : Нет
Скриншоты:
Время раздачи: с 5 до 19 мск (до появления первых 3-5 скачавших)
[Профиль] [ЛС]
Показать сообщения:    
Ответить на тему

Текущее время: 23-Сен 13:55

Часовой пояс: UTC + 3



Вы не можете начинать темы
Вы не можете отвечать на сообщения
Вы не можете редактировать свои сообщения
Вы не можете удалять свои сообщения
Вы не можете голосовать в опросах
Вы не можете прикреплять файлы к сообщениям
Вы не можете скачивать файлы