Harry Allen & Dave Blenkhorn - Under A Blanket Of Blue (2020) GAC Records [FLAC|Lossless|image + .cue] <Mainstream Jazz>

Ответить на тему
 
Автор Сообщение

Luka_2021 ®

Стаж: 26 дней

Сообщений: 49

Создавать темы 03-Сен-2021 09:47

[Цитировать]

- Harry Allen & Dave Blenkhorn - Under A Blanket Of Blue (2020) GAC Records - Жанр: Mainstream Jazz
Издание: GAC Records - 010
Продолжительность: 00:47:26
Кодек: FLAC (image+.cue)
Битрейт: Lossless
Источник (релизер): poptrof
Страна-производитель диска: USA
Наличие сканов в содержимом раздачи: нет
Треклист:
Отчёт EAC:
Exact Audio Copy V1.6 from 23. October 2020
EAC extraction logfile from 31. August 2021, 17:13
Dave Blenkhorn Harry Allen / Under A Blanket Of Blue
Used drive : Optiarc DVD RW AD-7243S Adapter: 1 ID: 0
Read mode : Secure
Utilize accurate stream : Yes
Defeat audio cache : Yes
Make use of C2 pointers : No
Read offset correction : 48
Overread into Lead-In and Lead-Out : No
Fill up missing offset samples with silence : Yes
Delete leading and trailing silent blocks : No
Null samples used in CRC calculations : Yes
Used interface : Native Win32 interface for Win NT & 2000
Used output format : User Defined Encoder
Selected bitrate : 896 kBit/s
Quality : High
Add ID3 tag : No
Command line compressor : C:\Program Files (x86)\Exact Audio Copy\Flac\flac.exe
Additional command line options : -V -8 %source%
TOC of the extracted CD
Track | Start | Length | Start sector | End sector
---------------------------------------------------------
1 | 0:00.00 | 5:07.24 | 0 | 23048
2 | 5:07.24 | 5:19.36 | 23049 | 47009
3 | 10:26.60 | 4:25.19 | 47010 | 66903
4 | 14:52.04 | 4:55.27 | 66904 | 89055
5 | 19:47.31 | 4:03.26 | 89056 | 107306
6 | 23:50.57 | 6:33.67 | 107307 | 136848
7 | 30:24.49 | 4:24.57 | 136849 | 156705
8 | 34:49.31 | 4:15.67 | 156706 | 175897
9 | 39:05.23 | 3:51.42 | 175898 | 193264
10 | 42:56.65 | 4:29.30 | 193265 | 213469
Range status and errors
Selected range
Filename Z:\Harry Allen\Harry Allen & Dave Blenkhorn - 2020 - Under A Blanket Of Blue\Harry Allen & Dave Blenkhorn - 2020 - Under A Blanket Of Blue.wav
Peak level 93.7 %
Extraction speed 3.7 X
Range quality 99.9 %
Test CRC 4FC542E4
Copy CRC 4FC542E4
Copy OK
No errors occurred
AccurateRip summary
Track 1 not present in database
Track 2 not present in database
Track 3 not present in database
Track 4 not present in database
Track 5 not present in database
Track 6 not present in database
Track 7 not present in database
Track 8 not present in database
Track 9 not present in database
Track 10 not present in database
None of the tracks are present in the AccurateRip database
End of status report
---- CUETools DB Plugin V2.1.6
[CTDB TOCID: hAWRfZlD5CJ4qmz_uYAljhTdInk-] disk not present in database
Submit result: hAWRfZlD5CJ4qmz_uYAljhTdInk- has been uploaded
==== Log checksum 40B8C2B2CF0C39D418B4E6BDBAFAAB794D66B4E275C6496C14C6627345A0325F ====
Состав:
Harry Allen - tenor saxophone
Dave Blenkhorn - guitar
Время раздачи: c 15:00 до 22:00 (минимум до появления первых 3-5 скачавших)
[Профиль] [ЛС]
Показать сообщения:    
Ответить на тему

Текущее время: 23-Сен 15:29

Часовой пояс: UTC + 3



Вы не можете начинать темы
Вы не можете отвечать на сообщения
Вы не можете редактировать свои сообщения
Вы не можете удалять свои сообщения
Вы не можете голосовать в опросах
Вы не можете прикреплять файлы к сообщениям
Вы не можете скачивать файлы