Бокс. Василий Ломаченко – Масайоси Накатани / Lomachenko vs. Nakatani IPTV [H.264/1080i-LQ]

Ответить на тему
 
Автор Сообщение

vlad_evp ®

Стаж: 8 лет 4 месяца

Сообщений: 303

Откуда: Керкинитида

Создавать темы 27-Июн-2021 10:48

[Цитировать]

Василий Ломаченко – Масайоси Накатани / Lomachenko vs. Nakatani -- Телекомпания: Матч ТВ HD
Жанр: Спорт, Бокс
Комментаторы: В. Фурсов, Д. Кучашвили
Участники: Василий Ломаченко и Масайоси Накатани
Описание:
Сегодня, 27 июня, на арене «Virgin Hotels» в Лас-Вегасе (штат Невада, США) состоялся бой между украинским экс-чемпионом в трех весовых категориях Василием Ломаченко (14-2, 10 КО) и японским легковесом Масайоси Накатани (19-1, 13 КО).
Продолжительность: 01:00:12
Качество видео: IPTV
Язык озвучки: Русский, Интершум
Субтитры: отсутствуют
Видео: AVC/H.264, 1920x1080 (16:9), ~8943 Kbps
Аудио#1: MP2, 2 ch, 192 Kbps | Русский
Аудио#2: MP2, 2 ch, 192 Kbps | Интершум

Mediainfo:
General
Unique ID                   : 106411282463534062230075030103076904450 (0x500E1149C2335B7E83C94A5D6DF41E02)
Complete name               : E:\Ломаченко – Накатани МатчТВ HD_1080i.mkv
Format                      : Matroska
Format version              : Version 4
File size                   : 3.92 GiB
Duration                    : 1 h 0 min
Overall bit rate            : 9 331 kb/s
Encoded date                : UTC 2021-06-27 04:57:24
Writing application         : mkvmerge v29.0.0 ('Like It Or Not') 64-bit
Writing library             : libebml v1.3.6 + libmatroska v1.4.9
Video
ID                          : 1
Format                      : AVC
Format/Info                 : Advanced Video Codec
Format profile              : High@L4
Format settings             : CABAC / 4 Ref Frames
Format settings, CABAC      : Yes
Format settings, Reference  : 4 frames
Codec ID                    : V_MPEG4/ISO/AVC
Duration                    : 1 h 0 min
Bit rate                    : 8 943 kb/s
Width                       : 1 920 pixels
Height                      : 1 080 pixels
Display aspect ratio        : 16:9
Frame rate mode             : Variable
Frame rate                  : 50.000 FPS
Original frame rate         : 25.000 FPS
Standard                    : Component
Color space                 : YUV
Chroma subsampling          : 4:2:0
Bit depth                   : 8 bits
Scan type                   : Interlaced
Scan type, store method     : Separated fields
Scan order                  : Top Field First
Bits/(Pixel*Frame)          : 0.086
Stream size                 : 3.76 GiB (96%)
Default                     : Yes
Forced                      : No
Color range                 : Limited
Color primaries             : BT.709
Transfer characteristics    : BT.709
Matrix coefficients         : BT.709
Audio #1
ID                          : 2
Format                      : MPEG Audio
Format version              : Version 1
Format profile              : Layer 2
Codec ID                    : A_MPEG/L2
Codec ID/Hint               : MP2
Duration                    : 1 h 0 min
Bit rate mode               : Constant
Bit rate                    : 192 kb/s
Channel(s)                  : 2 channels
Sampling rate               : 48.0 kHz
Frame rate                  : 41.667 FPS (1152 SPF)
Compression mode            : Lossy
Stream size                 : 82.7 MiB (2%)
Language                    : Russian
Default                     : Yes
Forced                      : No
Audio #2
ID                          : 3
Format                      : MPEG Audio
Format version              : Version 1
Format profile              : Layer 2
Codec ID                    : A_MPEG/L2
Codec ID/Hint               : MP2
Duration                    : 1 h 0 min
Bit rate mode               : Constant
Bit rate                    : 192 kb/s
Channel(s)                  : 2 channels
Sampling rate               : 48.0 kHz
Frame rate                  : 41.667 FPS (1152 SPF)
Compression mode            : Lossy
Stream size                 : 82.7 MiB (2%)
Default                     : No
Forced                      : No

Скриншоты:
[Профиль] [ЛС]
Показать сообщения:    
Ответить на тему

Текущее время: 23-Сен 14:53

Часовой пояс: UTC + 3



Вы не можете начинать темы
Вы не можете отвечать на сообщения
Вы не можете редактировать свои сообщения
Вы не можете удалять свои сообщения
Вы не можете голосовать в опросах
Вы не можете прикреплять файлы к сообщениям
Вы не можете скачивать файлы