(Pop,Rock) [CD] Chris Norman - Close up - 2007, FLAC (tracks+.cue), lossless

Ответить на тему
 
Автор Сообщение

2v2w ®

Стаж: 8 лет 6 месяцев

Сообщений: 1818

Создавать темы 24-Фев-2021 11:24

[Цитировать]

--Chris Norman - Close up-- Жанр: Pop,Rock
Носитель: CD
Страна-производитель диска (релиза): EU
Год издания: 2007
Издатель (лейбл): Edel
Номер по каталогу: 0185182ERE
Аудиокодек: FLAC (*.flac)
Тип рипа: tracks .cue
Продолжительность: 00:46:25
Источник: eloychik
Наличие сканов в содержимом раздачи: да
Треклист:

01. Lay Me Down
02. Love Not War
03. Trying To Find My Home
04. Hello Baby
05. Close To You
06. Catch Your Dream
07. Sleep Alone Tonight
08. When The Midnight Hour Is Calling
09. When A Love Affair Ends
10. I Melt Away
11. Maybe There's A Way
12. Baby I Call Your Name
13. Survival
Лог создания рипа
Exact Audio Copy V1.3 from 2. September 2016
Отчёт EAC об извлечении, выполненном 10. февраля 2021, 22:31
Chris Norman / Close Up
Дисковод: ASUS DRW-24D5MT Adapter: 1 ID: 0
Режим чтения : Достоверность
Использование точного потока : Да
Отключение кэша аудио : Да
Использование указателей C2 : Нет
Коррекция смещения при чтении : 6
Способность читать области Lead-in и Lead-out : Нет
Заполнение пропущенных сэмплов тишиной : Да
Удаление блоков с тишиной в начале и конце : Нет
При вычислениях CRC использовались нулевые сэмплы : Да
Интерфейс : Встроенный Win32-интерфейс для Win NT/2000
Обработка зазоров : Добавлено к предыдущему треку
Выходной формат : Пользовательский кодировщик
Выбранный битрейт : 128 kBit/s
Качество : Высокий
Добавление ID3-тега : Нет
Утилита сжатия : C:\Program Files (x86)\Exact Audio Copy\Flac\flac.exe
Дополнительные параметры : -8 -V -T "TITLE=%title%" -T "ARTIST=%artist%" -T "ALBUMARTIST=%albumartist%" -T "ALBUM=%albumtitle%" -T "DATE=%year%" -T "TRACKNUMBER=%tracknr%" -T "TRACKTOTAL=%numtracks%" -T "GENRE=%genre%" -T "COMMENT=%comment%" -T "PERFORMER=%albuminterpret%" -T "COMPOSER=%composer%" %source% -o Юst%
TOC извлечённого CD
Трек | Старт | Длительность | Начальный сектор | Конечный сектор
---------------------------------------------------------------------
1 | 0:00.00 | 4:20.08 | 0 | 19507
2 | 4:20.08 | 2:36.56 | 19508 | 31263
3 | 6:56.64 | 3:14.00 | 31264 | 45813
4 | 10:10.64 | 3:58.16 | 45814 | 63679
5 | 14:09.05 | 3:33.00 | 63680 | 79654
6 | 17:42.05 | 3:23.36 | 79655 | 94915
7 | 21:05.41 | 4:09.07 | 94916 | 113597
8 | 25:14.48 | 3:22.15 | 113598 | 128762
9 | 28:36.63 | 4:19.52 | 128763 | 148239
10 | 32:56.40 | 3:37.12 | 148240 | 164526
11 | 36:33.52 | 3:52.45 | 164527 | 181971
12 | 40:26.22 | 3:07.60 | 181972 | 196056
13 | 43:34.07 | 2:50.36 | 196057 | 208842
Трек 1
Имя файла E:\Раздачи\ СПАМ ®\Chris Norman - Close Up [ СПАМ Lay Me Down.wav
Длина предзазора 0:00:02.00
Пиковый уровень 100.0 %
Скорость извлечения 1.1 X
Качество трека 100.0 %
CRC теста 54782274
CRC копии 54782274
Точность не определена (достоверность 2) [78DE6C15], AccurateRip вернул [DF80C3B6] (AR v2)
Копирование... OK
Трек 2
Имя файла E:\Раздачи\ СПАМ ®\Chris Norman - Close Up [ СПАМ Love Not War.wav
Пиковый уровень 100.0 %
Скорость извлечения 1.1 X
Качество трека 100.0 %
CRC теста F7F020AF
CRC копии F7F020AF
Точность не определена (достоверность 2) [50336D7F], AccurateRip вернул [A0E9E97F] (AR v2)
Копирование... OK
Трек 3
Имя файла E:\Раздачи\ СПАМ ®\Chris Norman - Close Up [ СПАМ Trying To Find My Home.wav
Пиковый уровень 100.0 %
Скорость извлечения 1.2 X
Качество трека 100.0 %
CRC теста BBA72EDA
CRC копии BBA72EDA
Точное извлечение (достоверность 1) [44CF1037] (AR v1)
Копирование... OK
Трек 4
Имя файла E:\Раздачи\ СПАМ ®\Chris Norman - Close Up [ СПАМ Hello Baby.wav
Пиковый уровень 100.0 %
Скорость извлечения 1.4 X
Качество трека 100.0 %
CRC теста 5874EBBC
CRC копии 5874EBBC
Точное извлечение (достоверность 1) [CA044BFC] (AR v1)
Копирование... OK
Трек 5
Имя файла E:\Раздачи\ СПАМ ®\Chris Norman - Close Up [ СПАМ Close To You.wav
Пиковый уровень 100.0 %
Скорость извлечения 1.4 X
Качество трека 100.0 %
CRC теста BFFBEF24
CRC копии BFFBEF24
Точное извлечение (достоверность 1) [AFD8D008] (AR v1)
Копирование... OK
Трек 6
Имя файла E:\Раздачи\ СПАМ ®\Chris Norman - Close Up [ СПАМ Catch Your Dream.wav
Пиковый уровень 100.0 %
Скорость извлечения 1.3 X
Качество трека 99.9 %
CRC теста 7592F1EF
CRC копии 7592F1EF
Точность не определена (достоверность 2) [4A834B77], AccurateRip вернул [68FB6A48] (AR v2)
Копирование... OK
Трек 7
Имя файла E:\Раздачи\ СПАМ ®\Chris Norman - Close Up [ СПАМ Sleep Alone Tonight.wav
Пиковый уровень 100.0 %
Скорость извлечения 1.6 X
Качество трека 100.0 %
CRC теста 152AB2D2
CRC копии 152AB2D2
Точность не определена (достоверность 2) [7794C989], AccurateRip вернул [05A9AAB9] (AR v2)
Копирование... OK
Трек 8
Имя файла E:\Раздачи\ СПАМ ®\Chris Norman - Close Up [ СПАМ When The Midnight Hour Is Calling.wav
Пиковый уровень 100.0 %
Скорость извлечения 1.4 X
Качество трека 99.9 %
CRC теста 123FE5C0
CRC копии 123FE5C0
Точность не определена (достоверность 2) [753EB19B], AccurateRip вернул [49FAD51C] (AR v2)
Копирование... OK
Трек 9
Имя файла E:\Раздачи\ СПАМ ®\Chris Norman - Close Up [ СПАМ When A Love Affair Ends.wav
Пиковый уровень 100.0 %
Скорость извлечения 1.8 X
Качество трека 100.0 %
CRC теста 63E80E69
CRC копии 63E80E69
Точность не определена (достоверность 2) [256A66B0], AccurateRip вернул [D2B5956F] (AR v2)
Копирование... OK
Трек 10
Имя файла E:\Раздачи\ СПАМ ®\Chris Norman - Close Up [ СПАМ I Melt Away.wav
Пиковый уровень 100.0 %
Скорость извлечения 1.8 X
Качество трека 100.0 %
CRC теста F0F86552
CRC копии F0F86552
Точность не определена (достоверность 2) [17A54517], AccurateRip вернул [BA5A9BF4] (AR v2)
Копирование... OK
Трек 11
Имя файла E:\Раздачи\ СПАМ ®\Chris Norman - Close Up [ СПАМ Maybe There's A Way.wav
Пиковый уровень 100.0 %
Скорость извлечения 2.0 X
Качество трека 100.0 %
CRC теста 5E86A21A
CRC копии 5E86A21A
Точность не определена (достоверность 2) [6A6F61F5], AccurateRip вернул [FF899438] (AR v2)
Копирование... OK
Трек 12
Имя файла E:\Раздачи\ СПАМ ®\Chris Norman - Close Up [ СПАМ Baby I Call Your Name.wav
Пиковый уровень 100.0 %
Скорость извлечения 1.6 X
Качество трека 100.0 %
CRC теста 878E3EA1
CRC копии 878E3EA1
Точность не определена (достоверность 2) [A7BE0CE7], AccurateRip вернул [884AC8D6] (AR v2)
Копирование... OK
Трек 13
Имя файла E:\Раздачи\ СПАМ ®\Chris Norman - Close Up [ СПАМ Survival.wav
Длина предзазора 0:00:02.52
Пиковый уровень 99.8 %
Скорость извлечения 1.9 X
Качество трека 100.0 %
CRC теста 0523DCD3
CRC копии 0523DCD3
Точность не определена (достоверность 2) [6CD9A7F5], AccurateRip вернул [22FC7D06] (AR v2)
Копирование... OK
3 трек(и) скопированы точно
10 трек(и) не удалось проверить на точность
Некоторые треки не прошли проверку на точность
Ошибок не произошло
Конец отчёта
==== Контрольная сумма отчёта 3528A8243779C7539184BC2E2C07860AD4A493788AFE5606FAD9F13222FC80FB ====
Содержание индексной карты (.CUE)
REM GENRE "Pop Rock"
REM DATE 2007
REM DISCID B20AE00D
REM COMMENT "ExactAudioCopy v1.3"
PERFORMER "Chris Norman"
TITLE "Close Up"
REM COMPOSER ""
FILE "01 Lay Me Down.wav" WAVE
TRACK 01 AUDIO
TITLE "Lay Me Down"
PERFORMER "Chris Norman"
REM COMPOSER ""
INDEX 01 00:00:00
FILE "02 Love Not War.wav" WAVE
TRACK 02 AUDIO
TITLE "Love Not War"
PERFORMER "Chris Norman"
REM COMPOSER ""
INDEX 01 00:00:00
FILE "03 Trying To Find My Home.wav" WAVE
TRACK 03 AUDIO
TITLE "Trying To Find My Home"
PERFORMER "Chris Norman"
REM COMPOSER ""
INDEX 01 00:00:00
FILE "04 Hello Baby.wav" WAVE
TRACK 04 AUDIO
TITLE "Hello Baby"
PERFORMER "Chris Norman"
REM COMPOSER ""
INDEX 01 00:00:00
FILE "05 Close To You.wav" WAVE
TRACK 05 AUDIO
TITLE "Close To You"
PERFORMER "Chris Norman"
REM COMPOSER ""
INDEX 01 00:00:00
FILE "06 Catch Your Dream.wav" WAVE
TRACK 06 AUDIO
TITLE "Catch Your Dream"
PERFORMER "Chris Norman"
REM COMPOSER ""
INDEX 01 00:00:00
FILE "07 Sleep Alone Tonight.wav" WAVE
TRACK 07 AUDIO
TITLE "Sleep Alone Tonight"
PERFORMER "Chris Norman"
REM COMPOSER ""
INDEX 01 00:00:00
FILE "08 When The Midnight Hour Is Calling.wav" WAVE
TRACK 08 AUDIO
TITLE "When The Midnight Hour Is Calling"
PERFORMER "Chris Norman"
REM COMPOSER ""
INDEX 01 00:00:00
FILE "09 When A Love Affair Ends.wav" WAVE
TRACK 09 AUDIO
TITLE "When A Love Affair Ends"
PERFORMER "Chris Norman"
REM COMPOSER ""
INDEX 01 00:00:00
FILE "10 I Melt Away.wav" WAVE
TRACK 10 AUDIO
TITLE "I Melt Away"
PERFORMER "Chris Norman"
REM COMPOSER ""
INDEX 01 00:00:00
FILE "11 Maybe There's A Way.wav" WAVE
TRACK 11 AUDIO
TITLE "Maybe There's A Way"
PERFORMER "Chris Norman"
REM COMPOSER ""
INDEX 01 00:00:00
FILE "12 Baby I Call Your Name.wav" WAVE
TRACK 12 AUDIO
TITLE "Baby I Call Your Name"
PERFORMER "Chris Norman"
REM COMPOSER ""
INDEX 01 00:00:00
TRACK 13 AUDIO
TITLE "Survival"
PERFORMER "Chris Norman"
REM COMPOSER ""
INDEX 00 03:05:08
FILE "13 Survival.wav" WAVE
INDEX 01 00:00:00
[Профиль] [ЛС]
Показать сообщения:    
Ответить на тему

Текущее время: 22-Апр 00:36

Часовой пояс: UTC + 3



Вы не можете начинать темы
Вы не можете отвечать на сообщения
Вы не можете редактировать свои сообщения
Вы не можете удалять свои сообщения
Вы не можете голосовать в опросах
Вы не можете прикреплять файлы к сообщениям
Вы не можете скачивать файлы