Частный детектив / L'alpagueur (1976) BDRip [H.265/1080p-LQ ] [10-bit]

Ответить на тему
 
Автор Сообщение

vlad_evp ®

Стаж: 7 лет 10 месяцев

Сообщений: 268

Откуда: Керкинитида

Создавать темы 08-Фев-2021 01:45

[Цитировать]

Частный детектив / L'alpagueur (1976) -- Производство: Франция
Кинокомпания: Cerito Films
Жанр: Боевик, Детектив
Режиссер: Филипп Лабро
Продюсер: Жан-Поль Бельмондо
Актеры: Жан-Поль Бельмондо, Бруно Кремер, Мюриэль Бельмондо, Жан-Люк Бутте, Патрик Фьерри, Жан-Пьер Жорри, Виктор Гарривье, Жан Негрони, Марсель Имхофф, Роже Бенаму, Патрис Шаплен-Миди, Жак Дестоп, Мишель Делакруа, Клод Броссе, Морис Озель
Описание:
Роже Пиляр - секретный агент, профессионал экстракласса, выполняющий особо сложные и высокооплачиваемые задания. Его заветная мечта - купить себе маленький остров в океане с пальмами на белом песке. Но это мечты. А в действительности ему предстоит найти и разоблачить серийного убийцу по кличке «Ястреб», который использует молодых людей для ограбления банков и ювелирных магазинов, не оставляет никаких следов и убирает сообщников. Но один из них чудом остался жив...-
Возраст: 16+ (зрителям, достигшим 16 лет)-Продолжительность: 01:40:40
Качество видео: BDRip
Перевод: Дублированный, Многоголосый закадровый x4
Субтитры: русские

Информация по видеофайлу:
Видео: HEVC/H.265, 1792x1080, ~6039 Kbps
Аудио 1: AC3, 2 ch, 192 Kbps (французский)
Аудио 2: AC3, 2 ch, 192 Kbps (русский, дубляж - "Ленфильм" + многоголосый НТВ на места без дубляжа)
Аудио 3: AC3, 2 ch, 192 Kbps (русский, многоголосый - НТВ)
Аудио 4: AC3, 2 ch, 192 Kbps (русский, многоголосый - Inis)
Аудио 5: AC3, 2 ch, 192 Kbps (русский, многоголосый - ТРК "Останкино")
Аудио 6: AC3, 2 ch, 192 Kbps (русский, многоголосый - Neoclassica)

Mediainfo:
Общее
Уникальный идентификатор                 : 188615670274035895154962809451195884634 (0x8DE60E864288E7B0B7217A771373645A)
Полное имя                               : E:\Video\Частный детектив (L'alpagueur).mkv
Формат                                   : Matroska
Версия формата                           : Version 4 / Version 2
Размер файла                             : 5,06 Гбайт
Продолжительность                        : 1 ч. 40 м.
Общий поток                              : 7193 Кбит/сек
Название фильма                          : Частный детектив [«Ловец», «Охотник», «Наводчик»] / L'alpagueur
Дата кодирования                         : UTC 2018-01-15 21:48:57
Программа кодирования                    : mkvmerge v17.0.0 ('Be Ur Friend') 64-bit
Библиотека кодирования                   : libebml v1.3.5 + libmatroska v1.4.8
Авторское право                          : Encoded by Goor80
Обложка                                  : Yes
Attachments                              : cover.jpg
Released by                              : Buba5473 for NNM-Club
Видео
Идентификатор                            : 1
Формат                                   : HEVC
Формат/Информация                        : High Efficiency Video Coding
Профиль формата                          : Main 10@L4.1@Main
Идентификатор кодека                     : V_MPEGH/ISO/HEVC
Продолжительность                        : 1 ч. 40 м.
Битрейт                                  : 6039 Кбит/сек
Ширина                                   : 1792 пикселя
Высота                                   : 1080 пикселей
Соотношение сторон                       : 5:3
Режим частоты кадров                     : Постоянный
Частота кадров                           : 23,976 (24000/1001) кадра/сек
Цветовое пространство                    : YUV
Субдискретизация насыщенности            : 4:2:0
Битовая глубина                          : 10 бит
Бит/(Пиксели*Кадры)                      : 0.130
Размер потока                            : 4,25 Гбайт (84%)
Default                                  : Да
Forced                                   : Нет
Цветовой диапазон                        : Limited
Аудио #1
Идентификатор                            : 2
Формат                                   : AC-3
Формат/Информация                        : Audio Coding 3
Параметр Endianness формата              : Big
Идентификатор кодека                     : A_AC3
Продолжительность                        : 1 ч. 40 м.
Вид битрейта                             : Постоянный
Битрейт                                  : 192 Кбит/сек
Каналы                                   : 2 канала
Расположение каналов                     : Front: L R
Частота                                  : 48,0 КГц
Частота кадров                           : 31,250 кадров/сек (1536 spf)
Битовая глубина                          : 16 бит
Метод сжатия                             : С потерями
Размер потока                            : 138 Мбайт (3%)
Язык                                     : French
ServiceKind/String                       : Complete Main
Default                                  : Нет
Forced                                   : Нет
Аудио #2
Идентификатор                            : 3
Формат                                   : AC-3
Формат/Информация                        : Audio Coding 3
Параметр Endianness формата              : Big
Идентификатор кодека                     : A_AC3
Продолжительность                        : 1 ч. 40 м.
Вид битрейта                             : Постоянный
Битрейт                                  : 192 Кбит/сек
Каналы                                   : 2 канала
Расположение каналов                     : Front: L R
Частота                                  : 48,0 КГц
Частота кадров                           : 31,250 кадров/сек (1536 spf)
Битовая глубина                          : 16 бит
Метод сжатия                             : С потерями
Размер потока                            : 138 Мбайт (3%)
Заголовок                                : Перевод: Профессиональный (дублированный) Ленфильм & MVO НТВ
Язык                                     : Russian
ServiceKind/String                       : Complete Main
Default                                  : Нет
Forced                                   : Нет
Аудио #3
Идентификатор                            : 4
Формат                                   : AC-3
Формат/Информация                        : Audio Coding 3
Параметр Endianness формата              : Big
Идентификатор кодека                     : A_AC3
Продолжительность                        : 1 ч. 40 м.
Вид битрейта                             : Постоянный
Битрейт                                  : 192 Кбит/сек
Каналы                                   : 2 канала
Расположение каналов                     : Front: L R
Частота                                  : 48,0 КГц
Частота кадров                           : 31,250 кадров/сек (1536 spf)
Битовая глубина                          : 16 бит
Метод сжатия                             : С потерями
Размер потока                            : 138 Мбайт (3%)
Заголовок                                : Перевод: Профессиональный (многоголосый закадровый) НТВ
Язык                                     : Russian
ServiceKind/String                       : Complete Main
Default                                  : Да
Forced                                   : Нет
Аудио #4
Идентификатор                            : 5
Формат                                   : AC-3
Формат/Информация                        : Audio Coding 3
Параметр Endianness формата              : Big
Идентификатор кодека                     : A_AC3
Продолжительность                        : 1 ч. 40 м.
Вид битрейта                             : Постоянный
Битрейт                                  : 192 Кбит/сек
Каналы                                   : 2 канала
Расположение каналов                     : Front: L R
Частота                                  : 48,0 КГц
Частота кадров                           : 31,250 кадров/сек (1536 spf)
Битовая глубина                          : 16 бит
Метод сжатия                             : С потерями
Размер потока                            : 138 Мбайт (3%)
Заголовок                                : Перевод: Профессиональный (многоголосый закадровый) Inis
Язык                                     : Russian
ServiceKind/String                       : Complete Main
Default                                  : Нет
Forced                                   : Нет
Аудио #5
Идентификатор                            : 6
Формат                                   : AC-3
Формат/Информация                        : Audio Coding 3
Параметр Endianness формата              : Big
Идентификатор кодека                     : A_AC3
Продолжительность                        : 1 ч. 40 м.
Вид битрейта                             : Постоянный
Битрейт                                  : 192 Кбит/сек
Каналы                                   : 2 канала
Расположение каналов                     : Front: L R
Частота                                  : 48,0 КГц
Частота кадров                           : 31,250 кадров/сек (1536 spf)
Битовая глубина                          : 16 бит
Метод сжатия                             : С потерями
Размер потока                            : 138 Мбайт (3%)
Заголовок                                : Перевод: Профессиональный (многоголосый закадровый) ТРК Останкино
Язык                                     : Russian
ServiceKind/String                       : Complete Main
Default                                  : Нет
Forced                                   : Нет
Аудио #6
Идентификатор                            : 7
Формат                                   : AC-3
Формат/Информация                        : Audio Coding 3
Параметр Endianness формата              : Big
Идентификатор кодека                     : A_AC3
Продолжительность                        : 1 ч. 40 м.
Вид битрейта                             : Постоянный
Битрейт                                  : 192 Кбит/сек
Каналы                                   : 2 канала
Расположение каналов                     : Front: L R
Частота                                  : 48,0 КГц
Частота кадров                           : 31,250 кадров/сек (1536 spf)
Битовая глубина                          : 16 бит
Метод сжатия                             : С потерями
Размер потока                            : 138 Мбайт (3%)
Заголовок                                : Перевод: Профессиональный (многоголосый закадровый) Neoclassica
Язык                                     : Russian
ServiceKind/String                       : Complete Main
Default                                  : Нет
Forced                                   : Нет
Текст
Идентификатор                            : 8
Формат                                   : UTF-8
Идентификатор кодека                     : S_TEXT/UTF8
Идентификатор кодека/Информация          : UTF-8 Plain Text
Продолжительность                        : 1 ч. 37 м.
Битрейт                                  : 39 бит/сек
ElementCount                             : 554
Размер потока                            : 28,5 Кбайт (0%)
Язык                                     : Russian
Default                                  : Да
Forced                                   : Нет
Меню
00:00:00.000                             : en:Chapter 01
00:07:51.400                             : en:Chapter 02
00:15:23.440                             : en:Chapter 03
00:26:17.920                             : en:Chapter 04
00:33:40.800                             : en:Chapter 05
00:45:09.720                             : en:Chapter 06
00:51:57.840                             : en:Chapter 07
01:01:21.400                             : en:Chapter 08
01:08:11.400                             : en:Chapter 09
01:14:54.840                             : en:Chapter 10
01:19:08.440                             : en:Chapter 11
01:27:46.440                             : en:Chapter 12
XMP
Xmp.video.FileName           : E:\Video\Частный детектив (L'alpagueur).mkv
Xmp.video.FileSize           : -9.53674e-007
Xmp.video.MimeType           : video/matroska
Xmp.video.EBMLVersion        : 1
Xmp.video.EBMLReadVersion    : 1
Xmp.video.DocType            : matroska
Xmp.video.DocTypeVersion     : 4
Xmp.video.DocTypeReadVersion : 2
Xmp.video.TimecodeScale      : 0.001
Xmp.video.MuxingApp          : libebml v1.3.5 + libmatroska v1.4.8
Xmp.video.WritingApp         : mkvmerge v17.0.0 ('Be Ur Friend') 64-bit
Xmp.video.Duration           : 6039968
Xmp.video.DateUTC            : 537745737
Xmp.video.Title              : Частный детектив [«Ловец», «Охотник», «Наводчик»] / L'alpagueur
Xmp.video.TotalStream        : 8
Xmp.video.TrackLacing        : No
Xmp.video.Codec              : V_MPEGH/ISO/HEVC
Xmp.video.TrackLang          : und
Xmp.video.Width              : 1792
Xmp.video.Height             : 1080
Xmp.video.FrameRate          : 23.976
Xmp.audio.DefaultOn          : No
Xmp.audio.Compressor         : A_AC3
Xmp.audio.DefaultDuration    : 32000
Xmp.audio.TrackLang          : rus
Xmp.audio.SampleRate         : 48000
Xmp.audio.ChannelType        : Stereo
Xmp.video.TrackName          : Перевод: Профессиональный (многоголосый закадровый) Neoclassica
Xmp.video.SubTTrackLacing    : No
Xmp.video.SubTCodec          : S_TEXT/UTF8
Xmp.video.SubTLang           : rus
Xmp.video.AttachFileName     : cover.jpg
Xmp.video.AttachFileMIME     : image/jpeg
Xmp.video.AttachFileUID      : -1463454752967134534
Xmp.video.AspectRatio        : 16:10
Внимание! HEVC/x265:
H.265/HEVC (High Efficiency Video Coding) - это новый стандарт кодирования видео.
*Рипы в фомате HEVC, в настоящее время не поддерживается большинством аппаратных проигрывателей.
*Для корректного воспроизведения может потребоваться обновление ПО.
*Стандарт H.265/HEVC является логическим продолжением стандарта H.264/AVC (Advanced Video Coding), и характеризуется более эффективными алгоритмами сжатия, а также поддержкой высокого разрешения вплоть до 8K UHD (8192x4320). Первая версия стандарта H.265 была опубликована в начале 2013 года.
Любителям решения из коробки - установить последнюю версию на выбор:
Media Player Classic - Black Edition (MPC-BE)
VLC media player
Daum Pot Player
GOM Media Player
Любителям WMP и других плееров, использующих по умолчанию для воспроизведения системные кодеки+сплитеры - установить K-Lite Codec Pack версии 10.1.0 и выше.
Любимые плееры, не использующии по умолчанию для воспроизведения системные кодеки+сплитеры, нужно перенастроить на использование оных.
Знаете ли вы, что…
• Перевод оригинального названия – "Ловец".
• Занимает 95-е место по посещаемости среди зарубежных фильмов в советском кинопрокате.
Скриншоты:

[Профиль] [ЛС]
Показать сообщения:    
Ответить на тему

Текущее время: 08-Мар 12:50

Часовой пояс: UTC + 3



Вы не можете начинать темы
Вы не можете отвечать на сообщения
Вы не можете редактировать свои сообщения
Вы не можете удалять свои сообщения
Вы не можете голосовать в опросах
Вы не можете прикреплять файлы к сообщениям
Вы не можете скачивать файлы