Криминальные боссы / Arkansas (2020) WEB-DL 1080p от селезень | iTunes

Ответить на тему
 
Автор Сообщение

Feudor888 ®

Стаж: 8 лет 6 месяцев

Сообщений: 533

Создавать темы 09-Янв-2021 21:57

[Цитировать]

Криминальные боссы / Arkansas Год выхода: 2020
Жанр: Триллер, драма, криминал
Режиссер: Кларк Дьюк
В ролях: Винс Вон, Лиам Хемсворт, Джон Малкович, Вивика А. Фокс, Майкл Кеннет Уильямс, Кларк Дьюк, Брэд Уильям Хенке, Патрик Малдун, Иден Бролин, Джефф Чейз

О фильме: Кайл и Суайн работают под крышей живущего в Арканзасе наркобарона по прозвищу Фрог, которого они никогда не видели. Когда одна из сделок идет не по плану, смертельно опасные последствия не заставляют себя ждать.
Страна: США
Студия: StoryBoard Media, Buffalo 8 Productions, Don Kee Productions
Продолжительность: 01:39:49
Перевод: Дублированный | iTunes
Качество: WEB-DL 1080p
Видео: MPEG-4 AVC, 1916x800, 4631 Kbit/s, 23.976 fps
Аудио #01: 48 kHz, AC3, 5.1, 384 Kbps | iTunes | RUS |
Аудио #02: 48 kHz, AC3, 5.1, 384 Kbps | Оригинал | ENG |
Субтитры: Отсутсвуют
MI
General
Unique ID : 41828002421689432384248506922705107957 (0x1F77C7BDA9D296F517BB6491E1103BF5)
Complete name : E:VideoFirstArkansas.2020.WEB-DL.1080p.seleZen.mkv
Format : Matroska
Format version : Version 4
File size : 3.77 GiB
Duration : 1 h 39 min
Overall bit rate : 5 400 kb/s
Movie name : Arkansas 2020 from seleZen
Encoded date : UTC 2020-12-21 00:36:05
Writing application : mkvmerge v40.0.0 ('Old Town Road + Pony') 64-bit
Writing library : libebml v1.3.9 + libmatroska v1.5.2
Video
ID : 1
Format : AVC
Format/Info : Advanced Video Codec
Format profile : High@L4
Format settings : CABAC / 5 Ref Frames
Format settings, CABAC : Yes
Format settings, Reference : 5 frames
Codec ID : V_MPEG4/ISO/AVC
Duration : 1 h 39 min
Bit rate : 4 631 kb/s
Width : 1 916 pixels
Height : 800 pixels
Display aspect ratio : 2.40:1
Frame rate mode : Constant
Frame rate : 23.976 (24000/1001) FPS
Color space : YUV
Chroma subsampling : 4:2:0
Bit depth : 8 bits
Scan type : Progressive
Bits/(Pixel*Frame) : 0.126
Stream size : 3.23 GiB (86%)
Language : English
Default : Yes
Forced : No
Color range : Limited
Color primaries : BT.709
Transfer characteristics : BT.709
Matrix coefficients : BT.709
Audio #1
ID : 2
Format : AC-3
Format/Info : Audio Coding 3
Commercial name : Dolby Digital
Codec ID : A_AC3
Duration : 1 h 39 min
Bit rate mode : Constant
Bit rate : 384 kb/s
Channel(s) : 6 channels
Channel layout : L R C LFE Ls Rs
Sampling rate : 48.0 kHz
Frame rate : 31.250 FPS (1536 SPF)
Compression mode : Lossy
Stream size : 274 MiB (7%)
Title : iTunes
Language : Russian
Service kind : Complete Main
Default : Yes
Forced : Yes
Audio #2
ID : 3
Format : AC-3
Format/Info : Audio Coding 3
Commercial name : Dolby Digital
Codec ID : A_AC3
Duration : 1 h 39 min
Bit rate mode : Constant
Bit rate : 384 kb/s
Channel(s) : 6 channels
Channel layout : L R C LFE Ls Rs
Sampling rate : 48.0 kHz
Frame rate : 31.250 FPS (1536 SPF)
Compression mode : Lossy
Stream size : 274 MiB (7%)
Title : Original
Language : English
Service kind : Complete Main
Default : No
Forced : No
Menu
00:00:00.000 : en:1
00:14:25.949 : en:2
00:29:49.956 : en:3
00:45:24.765 : en:4
00:59:37.075 : en:5
01:13:38.833 : en:6
01:29:41.086 : en:7
[Профиль] [ЛС]
Показать сообщения:    
Ответить на тему

Текущее время: 23-Янв 08:54

Часовой пояс: UTC + 3



Вы не можете начинать темы
Вы не можете отвечать на сообщения
Вы не можете редактировать свои сообщения
Вы не можете удалять свои сообщения
Вы не можете голосовать в опросах
Вы не можете прикреплять файлы к сообщениям
Вы не можете скачивать файлы