Jerry Vale - Have Yourself a Merry Little Christmas (2003) [FLAC|Lossless|tracks + .cue] <Pop, Vocal, Christmas>

Ответить на тему
 
Автор Сообщение

Direktor_49 ®

Стаж: 4 года 2 месяца

Сообщений: 634

Создавать темы 25-Дек-2020 12:21

[Цитировать]

Jerry Vale - Have Yourself a Merry Little Christmas (2003) - Жанр: Pop, Vocal, Christmas
Издание: Columbia/Legacy #: CK 90631
Источник: fiks22
Продолжительность: 00:45:35
Кодек: FLAC
Битрейт: Lossless
Тип рипа: tracks + .cue
Треклист:
01. Have Yourself a Merry Little Christmas (2:34)
02. I'll Be Home for Christmas (2:19)
03. Blue Christmas (2:32)
04. Silver Bells (3:23)
05. The Christmas Song (Chestnuts Roasting on an Open Fire) (3:27)
06. White Christmas (2:59)
07. O, Holy Night! (2:26)
08. The First Noel (2:48)
09. O Come All Ye Faithful (2:06)
10. It Came Upon the Midnight Clear (2:29)
11. O Little Town of Bethlehem (3:18)
12. Silent Night, Holy Night (2:37)
13. Santa Mouse (2:41)
14. (There's No Place Like) Home for the Holidays (2:47)
15. He (4:00)
16. Snowbird (3:09)
Отчёт EAC:
Exact Audio Copy V1.0 beta 1 from 15. November 2010
EAC extraction logfile from 30. September 2011, 8:34
Jerry Vale / Have Yourself A Merry Little Christmas
Used drive : HL-DT-STDVDRAM GSA-T50N Adapter: 0 ID: 1
Read mode : Secure
Utilize accurate stream : Yes
Defeat audio cache : Yes
Make use of C2 pointers : No
Read offset correction : 667
Overread into Lead-In and Lead-Out : No
Fill up missing offset samples with silence : Yes
Delete leading and trailing silent blocks : No
Null samples used in CRC calculations : Yes
Used interface : Native Win32 interface for Win NT & 2000
Gap handling : Appended to previous track
Used output format : User Defined Encoder
Selected bitrate : 320 kBit/s
Quality : High
Add ID3 tag : No
Command line compressor : C:\Program Files\Exact Audio Copy\Flac\flac.exe
Additional command line options : -8 -V -T "ARTIST=%a" -T "TITLE=%t" -T "ALBUM=%g" -T "DATE=%y" -T "TRACKNUMBER=%n" -T "TOTALTRACKS=%x" -T "GENRE=%m" -T "ALBUMARTIST=%v" -T "ALBUM ARTIST=%v" -T "COMMENT=EAC Secure Mode, Test & Copy, AccurateRip, FLAC -8" %s
TOC of the extracted CD
Track | Start | Length | Start sector | End sector
---------------------------------------------------------
1 | 0:00.00 | 2:34.05 | 0 | 11554
2 | 2:34.05 | 2:19.17 | 11555 | 21996
3 | 4:53.22 | 2:32.15 | 21997 | 33411
4 | 7:25.37 | 3:23.18 | 33412 | 48654
5 | 10:48.55 | 3:27.02 | 48655 | 64181
6 | 14:15.57 | 2:58.70 | 64182 | 77601
7 | 17:14.52 | 2:25.68 | 77602 | 88544
8 | 19:40.45 | 2:47.50 | 88545 | 101119
9 | 22:28.20 | 2:06.20 | 101120 | 110589
10 | 24:34.40 | 2:28.52 | 110590 | 121741
11 | 27:03.17 | 3:17.73 | 121742 | 136589
12 | 30:21.15 | 2:37.30 | 136590 | 148394
13 | 32:58.45 | 2:40.47 | 148395 | 160441
14 | 35:39.17 | 2:47.30 | 160442 | 172996
15 | 38:26.47 | 4:00.33 | 172997 | 191029
16 | 42:27.05 | 3:08.52 | 191030 | 205181
Track 1
Filename D:\Fiamma\Jerry Vale - Have YourselfA Merry Little Christmas (2003) [FLAC] (Compilation)\01 - Have Yourself A Merry Little Christmas.wav
Pre-gap length 0:00:02.00
Peak level 98.7 %
Extraction speed 1.8 X
Track quality 99.9 %
Test CRC E23E3742
Copy CRC E23E3742
Track not present in AccurateRip database
Copy OK
Track 2
Filename D:\Fiamma\Jerry Vale - Have YourselfA Merry Little Christmas (2003) [FLAC] (Compilation)\02 - I'll Be Home For Christmas.wav
Pre-gap length 0:00:01.68
Peak level 100.0 %
Extraction speed 2.3 X
Track quality 100.0 %
Test CRC A21F80D6
Copy CRC A21F80D6
Track not present in AccurateRip database
Copy OK
Track 3
Filename D:\Fiamma\Jerry Vale - Have YourselfA Merry Little Christmas (2003) [FLAC] (Compilation)\03 - Blue Christmas.wav
Pre-gap length 0:00:01.25
Peak level 85.1 %
Extraction speed 2.5 X
Track quality 100.0 %
Test CRC 52E5A899
Copy CRC 52E5A899
Track not present in AccurateRip database
Copy OK
Track 4
Filename D:\Fiamma\Jerry Vale - Have YourselfA Merry Little Christmas (2003) [FLAC] (Compilation)\04 - Silver Bells.wav
Pre-gap length 0:00:01.62
Peak level 80.2 %
Extraction speed 2.8 X
Track quality 100.0 %
Test CRC F967B994
Copy CRC F967B994
Track not present in AccurateRip database
Copy OK
Track 5
Filename D:\Fiamma\Jerry Vale - Have YourselfA Merry Little Christmas (2003) [FLAC] (Compilation)\05 - The Christmas Song (Chestnuts Roasting On An Open Fire).wav
Pre-gap length 0:00:01.30
Peak level 89.8 %
Extraction speed 3.0 X
Track quality 100.0 %
Test CRC 83B77749
Copy CRC 83B77749
Track not present in AccurateRip database
Copy OK
Track 6
Filename D:\Fiamma\Jerry Vale - Have YourselfA Merry Little Christmas (2003) [FLAC] (Compilation)\06 - White Christmas.wav
Pre-gap length 0:00:01.55
Peak level 80.4 %
Extraction speed 3.0 X
Track quality 100.0 %
Test CRC FC1C5B77
Copy CRC FC1C5B77
Track not present in AccurateRip database
Copy OK
Track 7
Filename D:\Fiamma\Jerry Vale - Have YourselfA Merry Little Christmas (2003) [FLAC] (Compilation)\07 - O, Holy Night.wav
Pre-gap length 0:00:01.47
Peak level 98.8 %
Extraction speed 3.1 X
Track quality 100.0 %
Test CRC B048BFB0
Copy CRC B048BFB0
Track not present in AccurateRip database
Copy OK
Track 8
Filename D:\Fiamma\Jerry Vale - Have YourselfA Merry Little Christmas (2003) [FLAC] (Compilation)\08 - The First Noel.wav
Pre-gap length 0:00:01.43
Peak level 83.0 %
Extraction speed 3.2 X
Track quality 100.0 %
Test CRC 47AF6A3A
Copy CRC 47AF6A3A
Track not present in AccurateRip database
Copy OK
Track 9
Filename D:\Fiamma\Jerry Vale - Have YourselfA Merry Little Christmas (2003) [FLAC] (Compilation)\09 - O Come All Ye Faithful.wav
Pre-gap length 0:00:01.45
Peak level 75.2 %
Extraction speed 3.2 X
Track quality 100.0 %
Test CRC C0DA20F9
Copy CRC C0DA20F9
Cannot be verified as accurate (confidence 2) [A15F07EF], AccurateRip returned [86AEE6C4]
Copy OK
Track 10
Filename D:\Fiamma\Jerry Vale - Have YourselfA Merry Little Christmas (2003) [FLAC] (Compilation)\10 - It Came Upon The Midnight Clear.wav
Peak level 89.6 %
Extraction speed 3.3 X
Track quality 100.0 %
Test CRC CBDB8418
Copy CRC CBDB8418
Track not present in AccurateRip database
Copy OK
Track 11
Filename D:\Fiamma\Jerry Vale - Have YourselfA Merry Little Christmas (2003) [FLAC] (Compilation)\11 - O Little Town Of Bethlehem.wav
Pre-gap length 0:00:01.47
Peak level 98.2 %
Extraction speed 3.6 X
Track quality 100.0 %
Test CRC 509CC342
Copy CRC 509CC342
Track not present in AccurateRip database
Copy OK
Track 12
Filename D:\Fiamma\Jerry Vale - Have YourselfA Merry Little Christmas (2003) [FLAC] (Compilation)\12 - Silent Night, Holy Night.wav
Pre-gap length 0:00:01.38
Peak level 76.7 %
Extraction speed 3.0 X
Track quality 99.9 %
Test CRC 05178DBE
Copy CRC 05178DBE
Track not present in AccurateRip database
Copy OK
Track 13
Filename D:\Fiamma\Jerry Vale - Have YourselfA Merry Little Christmas (2003) [FLAC] (Compilation)\13 - Santa Mouse.wav
Pre-gap length 0:00:02.40
Peak level 96.5 %
Extraction speed 3.7 X
Track quality 100.0 %
Test CRC 92B0825D
Copy CRC 92B0825D
Track not present in AccurateRip database
Copy OK
Track 14
Filename D:\Fiamma\Jerry Vale - Have YourselfA Merry Little Christmas (2003) [FLAC] (Compilation)\14 - (There's No Place Like) Home For The Holidays.wav
Pre-gap length 0:00:01.62
Peak level 93.9 %
Extraction speed 3.9 X
Track quality 100.0 %
Test CRC B8C3935D
Copy CRC B8C3935D
Cannot be verified as accurate (confidence 2) [611652E5], AccurateRip returned [F5CA2D00]
Copy OK
Track 15
Filename D:\Fiamma\Jerry Vale - Have YourselfA Merry Little Christmas (2003) [FLAC] (Compilation)\15 - He.wav
Pre-gap length 0:00:02.15
Peak level 97.4 %
Extraction speed 4.2 X
Track quality 100.0 %
Test CRC 57A174A9
Copy CRC 57A174A9
Track not present in AccurateRip database
Copy OK
Track 16
Filename D:\Fiamma\Jerry Vale - Have YourselfA Merry Little Christmas (2003) [FLAC] (Compilation)\16 - Snowbird.wav
Pre-gap length 0:00:01.45
Peak level 79.8 %
Extraction speed 4.2 X
Track quality 100.0 %
Test CRC C2955CB0
Copy CRC C2955CB0
Track not present in AccurateRip database
Copy OK
2 track(s) could not be verified as accurate
14 track(s) not present in the AccurateRip database
No tracks could be verified as accurate
You may have a different pressing from the one(s) in the database
No errors occurred
End of status report
==== Log checksum 9BD2375C1A6549A39E9F0933C4B3072AD19DFF3D10F88C1420B610C80FCA29E5 ====

_________________
Подпись отключена за нарушение правил форума
[Профиль] [ЛС]
Показать сообщения:    
Ответить на тему

Текущее время: 16-Янв 08:54

Часовой пояс: UTC + 3



Вы не можете начинать темы
Вы не можете отвечать на сообщения
Вы не можете редактировать свои сообщения
Вы не можете удалять свои сообщения
Вы не можете голосовать в опросах
Вы не можете прикреплять файлы к сообщениям
Вы не можете скачивать файлы