Танцы. Последний сезон / Сезон 7 / Выпуски: 1-14 из ?? [2020, Реалити-шоу, танцы, развлекательный, хореография, SATRip]

Ответить на тему
 
Автор Сообщение

Direktor_49 ®

Стаж: 4 года 1 месяц

Сообщений: 593

Откуда: Калининград

Создавать темы 21-Ноя-2020 21:31

[Цитировать]

Танцы. Последний сезон / Сезон 7- Год выпуска: 2020
Страна: Россия, Comedy Club Production
Телеканал: ТНТ
Жанр: Реалити-шоу, танцы, развлекательный, хореография
Режиссер: Анатолий Шпульников
Ведущий: Ляйсан Утяшева
Наставники: Мигель, Татьяна Денисова (I), Егор Дружинин
Продолжительность: 14 х ~ 01:35:00
Перевод: Не требуется
Русские субтитры: Отсутствуют-Описание: Самый масштабный российский танцевальный проект. Каждый человек, который считает, что умеет танцевать, может получить звание лучшего танцора страны и стать звездой.-Автор релиза: | IMDB | КиноПоиск | Сэмпл |
Премьера: 29 августа 2020 года (ТНТ)
Реклама: Отсутствует-Качество: SATRip
Формат: AVI
Видео: XviD, 720x400 (16:9), 25.000 fps, ~ 1700 Кбит/с, (0.236 bit/pixel)
Аудио: MP3, 48.0 KHz, 2 ch, 192 Кбит/с, CBR
-
Список выпусков
1 выпуск от 29.08.2020 г. - г. Екатеринбург (гость эфира - Юлия Ахмедова)
2 выпуск от 05.09.2020 г. - г. Санкт-Петербург (гость эфира - Анастасия Ивлеева)
3 выпуск от 12.09.2020 г. - г. Новосибирск
4 выпуск от 19.09.2020 г. - г. Казань
5 выпуск от 26.09.2020 г. - г. Ростове-на-Дону (гость эфира - Zivert)
6 выпуск от 03.10.2020 г. - г. Минск (гость эфира - Александр Гудков)
7 выпуск от 10.10.2020 г. - г. Москва
8 выпуск от 17.10.2020 г. - г. Москва (гость эфира - Якопо Тисси)
9 выпуск от 24.10.2020 г.
10 выпуск от 31.10.2020 г. - Последний кастинг
11 выпуск от 07.11.2020 г. - Первый отборочный этап
12 выпуск от 08.11.2020 г. - Второй отборочный этап
13 выпуск от 14.11.2020 г.- Третий отборочный этап
14 выпуск от 21.11.2020 г.- Финальный отборочный этап
-
Скриншоты
-
MediaInfo
Общее
Полное имя : D:\Танцы.Последний.Сезон.S07.XviD.2020.SATRip.7turza™\01.Танцы.Последний.Сезон.S07.7turza™.avi
Формат : AVI
Формат/Информация : Audio Video Interleave
Профиль формата : OpenDML
Размер файла : 1,26 Гбайт
Продолжительность : 1 ч. 34 м.
Общий поток : 1906 Кбит/сек
Название фильма : S07 E01 # from 7turza #
Программа кодирования : Lavf58.29.100
Видео
Идентификатор : 0
Формат : MPEG-4 Visual
Профиль формата : Advanced Simple@L5
Настройки формата : BVOP1
Параметр BVOP формата : 1
Параметр QPel формата : Нет
Параметр GMC формата : Без точки перехода
Параметр матрицы формата : Default (H.263)
Идентификатор кодека : XVID
Идентификатор кодека/Подсказка : XviD
Продолжительность : 1 ч. 34 м.
Битрейт : 1699 Кбит/сек
Ширина : 720 пикселей
Высота : 400 пикселей
Соотношение сторон : 1,85:1
Частота кадров : 25,000 кадров/сек
Цветовое пространство : YUV
Субдискретизация насыщенности : 4:2:0
Битовая глубина : 8 бит
Тип развёртки : Прогрессивная
Метод сжатия : С потерями
Бит/(Пиксели*Кадры) : 0.236
Размер потока : 1,12 Гбайт (89%)
Библиотека кодирования : XviD 67
Аудио
Идентификатор : 1
Формат : MPEG Audio
Версия формата : Version 1
Профиль формата : Layer 3
Настройки формата : Joint stereo
Идентификатор кодека : 55
Идентификатор кодека/Подсказка : MP3
Продолжительность : 1 ч. 34 м.
Вид битрейта : Постоянный
Битрейт : 192 Кбит/сек
Каналы : 2 канала
Частота : 48,0 КГц
Метод сжатия : С потерями
Размер потока : 130 Мбайт (10%)
Выравнивание : Соединение по промежуткам
Продолжительность промежутка : 24 мс. (0,60 видеокадр)
Библиотека кодирования : LAME3.100UUUUUBte¾GÈ
-
Внимание! Раздача ведётся путём добавления новых серий
Внимание! Раздача ведётся путём добавления новых серий; при каждом добавлении создаётся новый торрент.
Чтобы начать докачку новой серии, пользователям необходимо сделать следующее:
1. Остановить скачивание;
2. Удалить старый торрент у себя из клиента (старые серии удалять не надо);
3. Скачать новый торрент и запустить его у себя в клиенте вместо старого, при этом указать клиенту путь в старую папку куда и должно происходить скачивание новых серий. Ваш клиент при этом должен произвести хеширование (проверку) старой папки и будет докачивать только те серии, которых у вас ещё нет. Старые серии при этом не удаляются, а продолжают раздаваться! Eсли вы уже удалили старые серии, то предотвратить повторную закачку старых серий можно, отжав галочку в соответствующих местах при запуске нового торрента.
--
[Профиль] [ЛС]
Показать сообщения:    
Ответить на тему

Текущее время: 01-Дек 07:51

Часовой пояс: UTC + 3



Вы не можете начинать темы
Вы не можете отвечать на сообщения
Вы не можете редактировать свои сообщения
Вы не можете удалять свои сообщения
Вы не можете голосовать в опросах
Вы не можете прикреплять файлы к сообщениям
Вы не можете скачивать файлы