Белка и Стрелка: Карибская тайна (2020) WEB-DLRip-AVC от OlLanDGroup | iTunes

Ответить на тему
 
Автор Сообщение

RapTor ®

Стаж: 7 лет

Сообщений: 122

Создавать темы 21-Ноя-2020 13:34

[Цитировать]

Информация
Название: Белка и Стрелка: Карибская тайна
Год выхода: 2020
Жанр: Мультфильм, комедия, приключения, семейный, полнометражный
Режиссер: Инна Евланникова
В ролях: Евгений Миронов, Ирина Пегова, Юлия Пересильд, Сергей Шнуров, Сергей Бурунов, Сергей Дьячков, Диомид Виноградов, Елена Шульман, Антон Виноградов, Андрей Лёвин
Описание: У берегов Кубы происходит загадочная аномалия – огромный водяной смерч всасывает воду, осушая океан. Решением советского командования Белка и Стрелка отправляются к острову братских народов с разведывательной миссией. Красочная Куба, лазурная гладь океана и окутанный тайнами подводный мир встречают героев. Четвероногим исследователям и их команде предстоят опасные приключения, которые не только приведут их к разгадке кубинской аномалии, но и проверят дружбу на прочность.

Выпущено: Россия / Киностудия им. М. Горького, КиноАтис
Продолжительность: 01:19:52
Озвучивание: Оригинальное | iTunes
Файл
Формат: MKV
Качество: WEB-DLRip-AVC
Источник: |Belka.i.Strelka.Karibskaya.tayna.2020.WEB-DL.1080p.ELEKTRI4KA.UNIONGANG|
Видео: 720x390 (1.85:1), 24 fps, x264 ~1232 kbps avg, 0.183 bit/pixel
Звук: 48 kHz, HE-AAC, 2 ch, ~72 kbps avg
Субтитры: Отсутствуют
Релиз:
MediaInfo:
General
Unique ID : 153802522377916845469002333543965466124 (0x73B549D073FE00BB71CA191A47751E0C)
Complete name : D:OlLanDGroupBelka.i.Strelka.Karibskaya.tayna.2020.WEB-DLRip(AVC).OlLanDGroup.mkv
Format : Matroska
Format version : Version 4
File size : 746 MiB
Duration : 1 h 19 min
Overall bit rate : 1 305 kb/s
Movie name : Белка и Стрелка: Карибская тайна (2020) WEB-DLRip(AVC) OlLanDGroup#Skandar
Encoded date : UTC 2020-11-11 01:09:32
Writing application : mkvmerge v31.0.0 ('Dolores In A Shoestand') 64-bit
Writing library : libebml v1.3.6 + libmatroska v1.4.9
Video
ID : 1
Format : AVC
Format/Info : Advanced Video Codec
Format profile : High@L4.1
Format settings : CABAC / 10 Ref Frames
Format settings, CABAC : Yes
Format settings, ReFrames : 10 frames
Codec ID : V_MPEG4/ISO/AVC
Duration : 1 h 19 min
Bit rate : 1 232 kb/s
Width : 720 pixels
Height : 390 pixels
Display aspect ratio : 1.85:1
Frame rate mode : Constant
Frame rate : 24.000 FPS
Color space : YUV
Chroma subsampling : 4:2:0
Bit depth : 8 bits
Scan type : Progressive
Bits/(Pixel*Frame) : 0.183
Stream size : 703 MiB (94%)
Title : Белка и Стрелка: Карибская тайна (2020) WEB-DLRip(AVC) OlLanDGroup#Skandar
Writing library : x264 core 146 r2538 121396c
Encoding settings : cabac=1 / ref=10 / deblock=1:-3:-3 / analyse=0x3:0x133 / me=umh / subme=11 / psy=1 / psy_rd=0.95:0.05 / mixed_ref=1 / me_range=32 / chroma_me=1 / trellis=2 / 8x8dct=1 / cqm=0 / deadzone=21,11 / fast_pskip=0 / chroma_qp_offset=-3 / threads=6 / lookahead_threads=1 / sliced_threads=0 / nr=0 / decimate=0 / interlaced=0 / bluray_compat=0 / constrained_intra=0 / bframes=10 / b_pyramid=2 / b_adapt=2 / b_bias=0 / direct=3 / weightb=1 / open_gop=0 / weightp=2 / keyint=240 / keyint_min=24 / scenecut=40 / intra_refresh=0 / rc_lookahead=40 / rc=2pass / mbtree=1 / bitrate=1232 / ratetol=1.0 / qcomp=0.60 / qpmin=0 / qpmax=69 / qpstep=4 / cplxblur=20.0 / qblur=0.5 / vbv_maxrate=50000 / vbv_bufsize=62500 / nal_hrd=none / filler=0 / ip_ratio=1.40 / aq=1:1.00
Language : Russian
Default : Yes
Forced : No
Audio
ID : 2
Format : AAC LC SBR
Format/Info : Advanced Audio Codec Low Complexity with Spectral Band Replication
Commercial name : HE-AAC
Format settings : Explicit
Codec ID : A_AAC-2
Duration : 1 h 19 min
Bit rate : 72.0 kb/s
Channel(s) : 2 channels
Channel layout : L R
Sampling rate : 48.0 kHz
Frame rate : 23.438 FPS (2048 SPF)
Compression mode : Lossy
Delay relative to video : 31 ms
Stream size : 41.1 MiB (6%)
Title : Original (iTunes)
Language : Russian
Default : Yes
Forced : No
Menu
00:00:00.000 : en:Глава 1
00:07:18.625 : en:Глава 2
00:15:42.750 : en:Глава 3
00:24:02.958 : en:Глава 4
00:31:30.999 : en:Глава 5
00:38:55.707 : en:Глава 6
00:47:01.998 : en:Глава 7
00:55:13.831 : en:Глава 8
01:04:16.206 : en:Глава 9
01:12:06.622 : en:Глава 10
Скриншоты
[Профиль] [ЛС]

Direktor_49

Стаж: 4 года 1 месяц

Сообщений: 593

Откуда: Калининград

Создавать темы 21-Ноя-2020 15:34 (спустя 2 часа)

[Цитировать]

Аналогичные ошибки...
[Профиль] [ЛС]
Показать сообщения:    
Ответить на тему

Текущее время: 01-Дек 07:38

Часовой пояс: UTC + 3



Вы не можете начинать темы
Вы не можете отвечать на сообщения
Вы не можете редактировать свои сообщения
Вы не можете удалять свои сообщения
Вы не можете голосовать в опросах
Вы не можете прикреплять файлы к сообщениям
Вы не можете скачивать файлы