Шкатулка дьявола / The Jack in the Box (2019) HDRip-AVC от OlLanDGroup | iTunes

Ответить на тему
 
Автор Сообщение

RapTor ®

Стаж: 7 лет

Сообщений: 112

Создавать темы 21-Ноя-2020 13:24

[Цитировать]

Информация о фильме
Название: Шкатулка дьявола
Оригинальное название: The Jack in the Box
Год выхода: 2019
Жанр: Ужасы
Режиссер: Лоуренс Фаулер
В ролях: Итан Тейлор, Роберт Нэйрн, Люси-Джейн Куинлэн, Филип Риду, Дэрри Гарднер, Чарльз Эбомели, Саймон Бальфур, Том Картер, Винни Кларк, Стэйси Линн Кроу
О фильме: Американский историк приезжает в британскую глубинку, чтобы поработать куратором музея, где случайно находит и открывает древнюю шкатулку.

Выпущено: Великобритания / Fowler Media, Up A Notch Productions
Продолжительность: 01:27:29
Перевод: Дублированный | iTunes
Файл
Формат: MKV
Качество: HDRip-AVC
Исходник: |Shkatulka.dyavola.2019.1080p.BluRay.ELEKTRI4KA.UNIONGANG|
Видео: 720x306 (2.35:1), 23.976 fps, x264 ~1118 kbps avg, 0.212 bit/pixel
Звук: 48 kHz, HE-AAC, 2 ch, ~72 kbps avg
Субтитры: Russian (Full, CDH)
Релиз:
MediaInfo:
General
Unique ID : 117349937416872944092640245473855669654 (0x5848C69DBB9C6C8EFBB317CE84280596)
Complete name : D:OlLanDGroupShkatulka.dyavola.2019.HDRip(AVC)745Mb.OlLanDGroup.mkv
Format : Matroska
Format version : Version 4
File size : 746 MiB
Duration : 1 h 27 min
Overall bit rate : 1 192 kb/s
Movie name : Шкатулка дьявола / The Jack in the Box (2019) HDRip-AVC от OlLanDGroup#Skandar
Encoded date : UTC 2020-11-15 12:13:56
Writing application : mkvmerge v31.0.0 ('Dolores In A Shoestand') 64-bit
Writing library : libebml v1.3.6 + libmatroska v1.4.9
Video
ID : 1
Format : AVC
Format/Info : Advanced Video Codec
Format profile : High@L4.1
Format settings : CABAC / 10 Ref Frames
Format settings, CABAC : Yes
Format settings, ReFrames : 10 frames
Codec ID : V_MPEG4/ISO/AVC
Duration : 1 h 27 min
Bit rate : 1 118 kb/s
Width : 720 pixels
Height : 306 pixels
Display aspect ratio : 2.35:1
Frame rate mode : Constant
Frame rate : 23.976 (24000/1001) FPS
Color space : YUV
Chroma subsampling : 4:2:0
Bit depth : 8 bits
Scan type : Progressive
Bits/(Pixel*Frame) : 0.212
Stream size : 700 MiB (94%)
Title : Шкатулка дьявола / The Jack in the Box (2019) HDRip-AVC от OlLanDGroup#Skandar
Writing library : x264 core 146 r2538 121396c
Encoding settings : cabac=1 / ref=10 / deblock=1:-3:-3 / analyse=0x3:0x133 / me=umh / subme=11 / psy=1 / psy_rd=0.95:0.05 / mixed_ref=1 / me_range=32 / chroma_me=1 / trellis=2 / 8x8dct=1 / cqm=0 / deadzone=21,11 / fast_pskip=0 / chroma_qp_offset=-3 / threads=6 / lookahead_threads=1 / sliced_threads=0 / nr=0 / decimate=0 / interlaced=0 / bluray_compat=0 / constrained_intra=0 / bframes=10 / b_pyramid=2 / b_adapt=2 / b_bias=0 / direct=3 / weightb=1 / open_gop=0 / weightp=2 / keyint=240 / keyint_min=23 / scenecut=40 / intra_refresh=0 / rc_lookahead=40 / rc=2pass / mbtree=1 / bitrate=1118 / ratetol=1.0 / qcomp=0.60 / qpmin=0 / qpmax=69 / qpstep=4 / cplxblur=20.0 / qblur=0.5 / vbv_maxrate=50000 / vbv_bufsize=62500 / nal_hrd=none / filler=0 / ip_ratio=1.40 / aq=1:1.00
Language : German
Default : Yes
Forced : No
Audio
ID : 2
Format : AAC LC SBR
Format/Info : Advanced Audio Codec Low Complexity with Spectral Band Replication
Commercial name : HE-AAC
Format settings : Explicit
Codec ID : A_AAC-2
Duration : 1 h 27 min
Bit rate : 72.0 kb/s
Channel(s) : 2 channels
Channel layout : L R
Sampling rate : 48.0 kHz
Frame rate : 23.438 FPS (2048 SPF)
Compression mode : Lossy
Delay relative to video : 31 ms
Stream size : 45.0 MiB (6%)
Title : DUB | iTunes
Language : Russian
Default : Yes
Forced : No
Text #1
ID : 3
Format : UTF-8
Codec ID : S_TEXT/UTF8
Codec ID/Info : UTF-8 Plain Text
Duration : 1 h 24 min
Bit rate : 67 b/s
Count of elements : 769
Stream size : 41.9 KiB (0%)
Title : Full
Language : Russian
Default : No
Forced : No
Text #2
ID : 4
Format : UTF-8
Codec ID : S_TEXT/UTF8
Codec ID/Info : UTF-8 Plain Text
Duration : 1 h 25 min
Bit rate : 77 b/s
Count of elements : 936
Stream size : 48.8 KiB (0%)
Title : CDH
Language : Russian
Default : No
Forced : No
Menu
00:00:00.000 : de:Chapter 01
00:10:49.815 : de:Chapter 02
00:21:05.305 : de:Chapter 03
00:33:32.927 : de:Chapter 04
00:44:28.457 : de:Chapter 05
00:55:31.161 : de:Chapter 06
01:05:57.745 : de:Chapter 07
01:15:24.520 : de:Chapter 08
01:25:17.278 : de:Chapter 09
Скриншоты
[Профиль] [ЛС]

Direktor_49

Стаж: 4 года

Сообщений: 581

Откуда: Калининград

Создавать темы 21-Ноя-2020 15:36 (спустя 2 часа 11 минут)

[Цитировать]

Заголовот и релиз от.... убрать. Заголовок в релизе по центру
[Профиль] [ЛС]
Показать сообщения:    
Ответить на тему

Текущее время: 25-Ноя 14:18

Часовой пояс: UTC + 3



Вы не можете начинать темы
Вы не можете отвечать на сообщения
Вы не можете редактировать свои сообщения
Вы не можете удалять свои сообщения
Вы не можете голосовать в опросах
Вы не можете прикреплять файлы к сообщениям
Вы не можете скачивать файлы