Шестой (1981) DVDRip [H.264]

Ответить на тему
 
Автор Сообщение

vlad_evp ®

Стаж: 7 лет 6 месяцев

Сообщений: 215

Откуда: Керкинитида

Создавать темы 17-Ноя-2020 14:54

[Цитировать]

Шестой (1981) -
Производство: СССР
Киностудия им. М. Горького (Ялтинский филиал). Первое творческое объединение
Жанр: Военный, Драма, Приключения
Режиссер: Самвел Гаспаров
Актеры:
Сергей Никоненко, Михаил Козаков, Владимир Грамматиков, Михаил Пуговкин, Евгений Бакалов, Тимофей Спивак, Сергей Ульянов, Махарбек Кокоев, Лариса Белогурова, Марина Яковлева
Описание:
Отгремела гражданская война. В маленьком южном городке появился шестой по счету начальник милиции. Пятеро предшественников Глодова вместе с другими активистами были зверски убиты бандой неуловимого Вахрамеева. И теперь Глодову с несколькими верными помощниками предстояла смертельная схватка с сильным врагом...-
Возраст: 12+ (зрителям, достигшим 12 лет)-Продолжительность: 01:19:29
Качество видео: DVDRip
Язык озвучки: Русский, Английский, Французский
Субтитры: Отсутствуют
Информация по видеофайлу:

Видео: AVC/H.264, 720x312, ~2 024 kbps
Аудио 1: AC3, 6 ch, 448 kbps, Русский
Аудио 2: AC3, 6 ch, 576 kbps, Английский (дубляж)
Аудио 3: AC3, 6 ch, 576 kbps, Французский (дубляж)

MediaInfo:
General
Unique ID                                : 201331665144758513544785444947039657409 (0x97771179DA1A6602BB497626DC0C9DC1)
Complete name                            : D:\Torrent_Download\Shestoi_1981_RUS_ENG_FRA.mkv
Format                                   : Matroska
Format version                           : Version 4
File size                                : 2.01 GiB
Duration                                 : 1 h 19 min
Overall bit rate                         : 3 626 kb/s
Encoded date                             : UTC 2020-11-17 08:23:18
Writing application                      : mkvmerge v8.4.0 ('A better way to fly') 32bit
Writing library                          : libebml v1.3.1 + libmatroska v1.4.2
Video
ID                                       : 1
Format                                   : AVC
Format/Info                              : Advanced Video Codec
Format profile                           : High@L4.1
Format settings                          : CABAC / 4 Ref Frames
Format settings, CABAC                   : Yes
Format settings, Reference frames        : 4 frames
Codec ID                                 : V_MPEG4/ISO/AVC
Duration                                 : 1 h 19 min
Bit rate                                 : 2 024 kb/s
Width                                    : 720 pixels
Height                                   : 312 pixels
Display aspect ratio                     : 2.35:1
Frame rate mode                          : Constant
Frame rate                               : 25.000 FPS
Color space                              : YUV
Chroma subsampling                       : 4:2:0
Bit depth                                : 8 bits
Scan type                                : Progressive
Bits/(Pixel*Frame)                       : 0.360
Stream size                              : 1.12 GiB (56%)
Writing library                          : x264 core 130 r2273 b3065e6
Encoding settings                        : cabac=1 / ref=3 / deblock=1:-1:-1 / analyse=0x3:0x113 / me=umh / subme=10 / psy=1 / psy_rd=1.00:0.15 / mixed_ref=1 / me_range=32 / chroma_me=1 / trellis=2 / 8x8dct=1 / cqm=0 / deadzone=21,11 / fast_pskip=0 / chroma_qp_offset=-3 / threads=3 / lookahead_threads=1 / sliced_threads=0 / nr=0 / decimate=1 / interlaced=0 / bluray_compat=0 / constrained_intra=0 / bframes=3 / b_pyramid=2 / b_adapt=2 / b_bias=0 / direct=3 / weightb=1 / open_gop=0 / weightp=2 / keyint=250 / keyint_min=25 / scenecut=40 / intra_refresh=0 / rc_lookahead=40 / rc=2pass / mbtree=1 / bitrate=2024 / ratetol=1.0 / qcomp=0.60 / qpmin=0 / qpmax=69 / qpstep=4 / cplxblur=20.0 / qblur=0.5 / ip_ratio=1.40 / aq=1:1.00
Language                                 : English
Default                                  : Yes
Forced                                   : No
Audio #1
ID                                       : 2
Format                                   : AC-3
Format/Info                              : Audio Coding 3
Commercial name                          : Dolby Digital
Codec ID                                 : A_AC3
Duration                                 : 1 h 19 min
Bit rate mode                            : Constant
Bit rate                                 : 448 kb/s
Channel(s)                               : 6 channels
Channel layout                           : L R C LFE Ls Rs
Sampling rate                            : 48.0 kHz
Frame rate                               : 31.250 FPS (1536 SPF)
Compression mode                         : Lossy
Stream size                              : 255 MiB (12%)
Language                                 : Russian
Service kind                             : Complete Main
Default                                  : Yes
Forced                                   : No
Audio #2
ID                                       : 3
Format                                   : AC-3
Format/Info                              : Audio Coding 3
Commercial name                          : Dolby Digital
Codec ID                                 : A_AC3
Duration                                 : 1 h 19 min
Bit rate mode                            : Constant
Bit rate                                 : 576 kb/s
Channel(s)                               : 6 channels
Channel layout                           : L R C LFE Ls Rs
Sampling rate                            : 48.0 kHz
Frame rate                               : 31.250 FPS (1536 SPF)
Compression mode                         : Lossy
Stream size                              : 327 MiB (16%)
Language                                 : English
Service kind                             : Complete Main
Default                                  : No
Forced                                   : No
Audio #3
ID                                       : 4
Format                                   : AC-3
Format/Info                              : Audio Coding 3
Commercial name                          : Dolby Digital
Codec ID                                 : A_AC3
Duration                                 : 1 h 19 min
Bit rate mode                            : Constant
Bit rate                                 : 576 kb/s
Channel(s)                               : 6 channels
Channel layout                           : L R C LFE Ls Rs
Sampling rate                            : 48.0 kHz
Frame rate                               : 31.250 FPS (1536 SPF)
Compression mode                         : Lossy
Stream size                              : 327 MiB (16%)
Language                                 : French
Service kind                             : Complete Main
Default                                  : No
Forced                                   : No
Дополнительная информация:

• Фильм снят на плёнке Шосткинского п/о «Свема»
• Фильм снимали в Гурзуфе и несколько сцен в Ялте (отделение милиции — современное здание «Сбербанка» на ул.Чехова; съёмки на ул.Ширяева и ул.Мичурина).
• Сюжетная линия восходит к классическим «Семи самураям» Акиры Куросавы.
Скриншоты:

[Профиль] [ЛС]
Показать сообщения:    
Ответить на тему

Текущее время: 01-Дек 07:57

Часовой пояс: UTC + 3



Вы не можете начинать темы
Вы не можете отвечать на сообщения
Вы не можете редактировать свои сообщения
Вы не можете удалять свои сообщения
Вы не можете голосовать в опросах
Вы не можете прикреплять файлы к сообщениям
Вы не можете скачивать файлы