Футбол. Лига Чемпионов УЕФА 2020-2021. Группа E. 3-й тур. Севилья (Испания) — Краснодар (Россия) (2020) WEB-DL [H.264/1080p-LQ]

Ответить на тему
 
Автор Сообщение

Beast ®

Стаж: 18 дней

Сообщений: 47

Создавать темы 12-Ноя-2020 17:26

[Цитировать]

Телекомпания: Матч ТВ HD
Жанр: Спорт
Комментатор: Михаил Поленов
Описание:
Лига Чемпионов УЕФА 2020-2021. Групповой этап.
04 ноября 2020, среда. 23:00 МСК
Группа E. 3-й тур
Севилья (Севилья, Испания) — Краснодар (Краснодар, Россия)
Стадион: Рамон Санчес Писхуан (Севилья, Испания), вместимость: 45500
Главный судья: Феликс Брих (Германия);
Ассистент: Марк Борш (Германия);
Ассистент: Штефан Лупп (Германия);
Резервный: Даниэль Зиберт (Германия)
Продолжительность: 01:48:16
Качество видео: WEB-DL
Язык озвучки: Русский
Субтитры: отсутствуют
Видео: AVC/H.264, 1920x1080 (16:9), ~6000 Kbps
Аудио: AAC, 2 ch, 192 Kbps
Mediainfo:
General
Unique ID : 98620337621004838869261191952303859628 (0x4A31960CF1492EC424C5CF6BE17727AC)
Complete name : F:\SPORT\Футбол\UEFA Лига Чемпионов\Champions League 2020-2021.MD 3.Gr E. Sevilla - Krasnodar.1080p.mkv
Format : Matroska
Format version : Version 4
File size : 4.66 GiB
Duration : 1 h 48 min
Overall bit rate mode : Variable
Overall bit rate : 6 156 kb/s
Encoded date : UTC 2020-11-05 17:59:58
Writing application : mkvmerge v51.0.0 ('I Wish') 64-bit
Writing library : libebml v1.4.0 + libmatroska v1.6.2
Video
ID : 1
Format : AVC
Format/Info : Advanced Video Codec
Format profile : Main@L4
Format settings : CABAC / 3 Ref Frames
Format settings, CABAC : Yes
Format settings, Reference : 3 frames
Codec ID : V_MPEG4/ISO/AVC
Duration : 1 h 48 min
Bit rate mode : Variable
Bit rate : 6 000 kb/s
Width : 1 920 pixels
Height : 1 080 pixels
Display aspect ratio : 16:9
Frame rate mode : Variable
Frame rate : 24.842 FPS
Original frame rate : 25.000 FPS
Color space : YUV
Chroma subsampling : 4:2:0
Bit depth : 8 bits
Scan type : Progressive
Bits/(Pixel*Frame) : 0.116
Stream size : 4.51 GiB (97%)
Default : Yes
Forced : No
Audio
ID : 2
Format : AAC LC
Format/Info : Advanced Audio Codec Low Complexity
Codec ID : A_AAC-2
Duration : 1 h 48 min
Bit rate : 192 kb/s
Channel(s) : 2 channels
Channel layout : L R
Sampling rate : 44.1 kHz
Frame rate : 43.066 FPS (1024 SPF)
Compression mode : Lossy
Stream size : 148 MiB (3%)
Language : Russian
Default : Yes
Forced : No
Скриншоты:
Время раздачи: 24/7 (до появления первых 3-5 скачавших)
[Профиль] [ЛС]
Показать сообщения:    
Ответить на тему

Текущее время: 01-Дек 07:49

Часовой пояс: UTC + 3



Вы не можете начинать темы
Вы не можете отвечать на сообщения
Вы не можете редактировать свои сообщения
Вы не можете удалять свои сообщения
Вы не можете голосовать в опросах
Вы не можете прикреплять файлы к сообщениям
Вы не можете скачивать файлы