(Blues Rock, Jazz Rock, Early Fusion) [CD] Don 'Sugar Cane' Harris (Don 'SugarCane' Harris) - Cup Full Of Dreams - 1973 (2011 Promising Music), FLAC (tracks+.cue), lossless

Ответить на тему
 
Автор Сообщение

Direktor_49 ®

Стаж: 4 года 1 месяц

Сообщений: 593

Откуда: Калининград

Создавать темы 27-Окт-2020 08:07

[Цитировать]

-Don 'Sugar Cane' Harris - Cup Full Of Dreams - 1973 (2011 Promising Music)- Alice (old-rock): 4-я пластинка великолепного скрипача - торжество прогрессивного джаз-рока и блюза. По сути, этот альбом явился продолжением 2-х предыдущих мастерписов. Длинные треки - от 8 до 14 минут, фактически это студийный импровиз с невероятными попеременными проходами на скрипке, гитаре и саксе (в составе саксофонист почему-то не указан). Совершенно не американская музыка, Европой несет за версту ... Изящная и тонкая работа.
Жанр: Blues Rock, Jazz Rock, Early Fusion
Носитель: CD (Remastered)
Страна-производитель диска (релиза): Germany
Год издания оригинала: 1973
Год переиздания: 2011
Издатель (лейбл): Promising Music
Номер по каталогу: 441152 CD
Страна исполнителя (группы): USA
Дата / место записи: in Hollywood, Los Angeles, CA,1973
Аудио кодек: FLAC (*.flac)
Тип рипа: (tracks + .cue)
Битрейт аудио: lossless
Наличие сканов в содержимом раздачи: full scans
Продолжительность: 39:08
Источник (релизер): Orpheus
Трэклист:
1. Runnin' Away (07:57)
2. Hattie's Bathtub (07:21)
3. Bad Feet (05:16)
4. Cup Full Of Dreams (14:21)
5. Generation Of Vipers (04:13)
Логи
Лог создания рипа
Exact Audio Copy V1.3 from 2. September 2016
EAC extraction logfile from 20. June 2020, 16:51
Sugar Cane Harris / Cup Full Of Dreams
Used drive : HL-DT-STDVDRAM GH24NSD1 Adapter: 1 ID: 0
Read mode : Secure
Utilize accurate stream : Yes
Defeat audio cache : Yes
Make use of C2 pointers : No
Read offset correction : 6
Overread into Lead-In and Lead-Out : No
Fill up missing offset samples with silence : Yes
Delete leading and trailing silent blocks : No
Null samples used in CRC calculations : Yes
Used interface : Native Win32 interface for Win NT & 2000
Gap handling : Appended to previous track
Used output format : User Defined Encoder
Selected bitrate : 1024 kBit/s
Quality : High
Add ID3 tag : No
Command line compressor : C:\Program Files (x86)\Exact Audio Copy\Flac\flac.exe
Additional command line options : -8 -V -T "ARTIST=%artist%" -T "TITLE=%title%" -T "ALBUM=%albumtitle%" -T "DATE=%year%" -T "TRACKNUMBER=%tracknr%" -T "TOTALTRACKS=%numtracks%" -T "GENRE=%genre%" -T "ALBUMARTIST=%albumartist%" -T "ALBUM ARTIST=%albumartist%" -T "COMMENT=EAC Secure Mode, Test & Copy, AccurateRip, FLAC -8" %source%
TOC of the extracted CD
Track | Start | Length | Start sector | End sector
---------------------------------------------------------
1 | 0:00.00 | 7:56.44 | 0 | 35743
2 | 7:56.44 | 7:20.46 | 35744 | 68789
3 | 15:17.15 | 5:15.52 | 68790 | 92466
4 | 20:32.67 | 14:21.10 | 92467 | 157051
5 | 34:54.02 | 4:12.74 | 157052 | 176025
Track 1
Filename C:\Freakout\01 - Runnin' Away.wav
Pre-gap length 0:00:02.00
Peak level 98.8 %
Extraction speed 5.4 X
Track quality 100.0 %
Test CRC C34192D2
Copy CRC C34192D2
Accurately ripped (confidence 7) [01673AE6] (AR v2)
Copy OK
Track 2
Filename C:\Freakout\02 - Hattie's Bathtub.wav
Peak level 98.8 %
Extraction speed 6.2 X
Track quality 100.0 %
Test CRC CBA98B49
Copy CRC CBA98B49
Accurately ripped (confidence 7) [92388928] (AR v2)
Copy OK
Track 3
Filename C:\Freakout\03 - Bad Feet.wav
Peak level 98.8 %
Extraction speed 5.7 X
Track quality 99.9 %
Test CRC 71998F01
Copy CRC 71998F01
Accurately ripped (confidence 7) [658BF2A8] (AR v2)
Copy OK
Track 4
Filename C:\Freakout\04 - Cup Full Of Dreams.wav
Peak level 98.8 %
Extraction speed 7.9 X
Track quality 100.0 %
Test CRC 415F78A2
Copy CRC 415F78A2
Accurately ripped (confidence 7) [B3CF9D6F] (AR v2)
Copy OK
Track 5
Filename C:\Freakout\05 - Generation Of Vipers.wav
Peak level 98.8 %
Extraction speed 6.3 X
Track quality 99.9 %
Test CRC 128D24B5
Copy CRC 128D24B5
Accurately ripped (confidence 7) [6F05C32D] (AR v2)
Copy OK
All tracks accurately ripped
No errors occurred
End of status report
==== Log checksum 83D62640DFA7A1E9030785157B9467967678C3D953B3FA86C29E5EFC401258F6 ====
Содержание индексной карты (.CUE):
REM GENRE "Jazz Rock"
REM DATE 1973
REM DISCID 43092B05
REM COMMENT "ExactAudioCopy v1.3"
CATALOG 0602527615967
PERFORMER "Sugar Cane Harris"
TITLE "Cup Full Of Dreams"
REM COMPOSER ""
FILE "01 - Runnin' Away.wav" WAVE
TRACK 01 AUDIO
TITLE "Runnin' Away"
PERFORMER "Sugar Cane Harris"
REM COMPOSER ""
ISRC DEUM71018226
INDEX 01 00:00:00
FILE "02 - Hattie's Bathtub.wav" WAVE
TRACK 02 AUDIO
TITLE "Hattie's Bathtub"
PERFORMER "Sugar Cane Harris"
REM COMPOSER ""
ISRC DEUM71018227
INDEX 01 00:00:00
FILE "03 - Bad Feet.wav" WAVE
TRACK 03 AUDIO
TITLE "Bad Feet"
PERFORMER "Sugar Cane Harris"
REM COMPOSER ""
ISRC DEUM71018228
INDEX 01 00:00:00
FILE "04 - Cup Full Of Dreams.wav" WAVE
TRACK 04 AUDIO
TITLE "Cup Full Of Dreams"
PERFORMER "Sugar Cane Harris"
REM COMPOSER ""
ISRC DEUM71018229
INDEX 01 00:00:00
FILE "05 - Generation Of Vipers.wav" WAVE
TRACK 05 AUDIO
TITLE "Generation Of Vipers"
PERFORMER "Sugar Cane Harris"
REM COMPOSER ""
ISRC DEUM71018230
INDEX 01 00:00:00
Лог проверки качества
-----------------------
DON'T MODIFY THIS FILE
-----------------------
PERFORMER: auCDtect Task Manager, ver. 1.6.0 RC1 build 1.6.0.1
Copyright (c) 2008-2010 y-soft. All rights reserved
http://y-soft.org
ANALYZER: auCDtect: CD records authenticity detector, version 0.8.2
Copyright (c) 2004 Oleg Berngardt. All rights reserved.
Copyright (c) 2004 Alexander Djourik. All rights reserved.
FILE: 05 - Generation Of Vipers.flac
Size: 26884612 Hash: 9A98624A5EF3A9599BE947ECCB3F0B5C Accuracy: -m0
Conclusion: CDDA 100%
Signature: C28BA4B77B8EC50611236B51013E71FF3E87D434
FILE: 04 - Cup Full Of Dreams.flac
Size: 96063563 Hash: 92996D0C3322981144191DD650E4010E Accuracy: -m0
Conclusion: CDDA 99%
Signature: 7F48E38743E5DD7043984B9CD8EF8DF755D1C8A8
FILE: 03 - Bad Feet.flac
Size: 35329762 Hash: 0F9A6B9DBA466E841C3C23B9036EDBA4 Accuracy: -m0
Conclusion: CDDA 100%
Signature: BC60C8487E22F3D7C63B1DB7C51F968FA8C6679B
FILE: 02 - Hattie's Bathtub.flac
Size: 48296665 Hash: 35A4428B1C619CA45A3C69A3A3CD48AA Accuracy: -m0
Conclusion: CDDA 100%
Signature: C7047D7B40183E1A0322479DEAA75CF775A4E71E
FILE: 01 - Runnin' Away.flac
Size: 50793952 Hash: D2AA2567A219355D634D9B12498007F9 Accuracy: -m0
Conclusion: CDDA 100%
Signature: 297AA0DB2CABC1CCAF536F87B1742F0E02502735
Лог CUETools
*.accurip
[CUETools log; Date: 27.10.2020 6:12:51; Version: 2.1.5]
[CTDB TOCID: ayX4X33ClSl0j6uIzv9jolm9t58-] found.
Track | CTDB Status
1 | (16/16) Accurately ripped
2 | (16/16) Accurately ripped
3 | (16/16) Accurately ripped
4 | (16/16) Accurately ripped
5 | (16/16) Accurately ripped
[AccurateRip ID: 0008169f-0025fb37-43092b05] found.
Track [ CRC | V2 ] Status
01 [eb940cbd|01673ae6] (0+7/7) Accurately ripped
02 [2ccc88ac|92388928] (0+7/7) Accurately ripped
03 [ba875285|658bf2a8] (0+7/7) Accurately ripped
04 [3b660992|b3cf9d6f] (0+7/7) Accurately ripped
05 [f7e4f91d|6f05c32d] (0+7/7) Accurately ripped
Track Peak [ CRC32 ] [W/O NULL] [ LOG ]
-- 98,8 [ECC6F776] [7CE1E5C4]
01 98,8 [C34192D2] [D9D1BCB5] CRC32
02 98,8 [CBA98B49] [39B48A21] CRC32
03 98,8 [71998F01] [3F77FE73] CRC32
04 98,8 [415F78A2] [C1980FFA] CRC32
05 98,8 [128D24B5] [2093A0CF] CRC32
*.toc
Track | Start | Length | Start sector | End sector
---------------------------------------------------------
1 | 0:00.00 | 7:56.44 | 0 | 35743
2 | 7:56.44 | 7:20.46 | 35744 | 68789
3 | 15:17.15 | 5:15.52 | 68790 | 92466
4 | 20:32.67 | 14:21.10 | 92467 | 157051
5 | 34:54.02 | 4:12.74 | 157052 | 176025
Замер динамического диапазона
foobar2000 1.5.5 / Dynamic Range Meter 1.1.1
log date: 2020-10-27 06:28:07
--------------------------------------------------------------------------------
Analyzed: Sugar Cane Harris / Cup Full Of Dreams
--------------------------------------------------------------------------------
DR Peak RMS Duration Track
--------------------------------------------------------------------------------
DR12 -0.10 dB -14.48 dB 7:57 01-Runnin' Away
DR11 -0.10 dB -12.71 dB 7:21 02-Hattie's Bathtub
DR10 -0.10 dB -12.36 dB 5:16 03-Bad Feet
DR11 -0.10 dB -13.11 dB 14:21 04-Cup Full Of Dreams
DR11 -0.10 dB -13.00 dB 4:13 05-Generation Of Vipers
--------------------------------------------------------------------------------
Number of tracks: 5
Official DR value: DR11
Samplerate: 44100 Hz
Channels: 2
Bits per sample: 16
Bitrate: 850 kbps
Codec: FLAC
================================================================================
-
Images
Back
Диск
Об альбоме (сборнике):
Blues violinist Sugarcane Harris is on fire during this 1973 studio session for BASF, which features many of his regular collaborators of the period. Harris, who wrote all of the material heard on the date, mixes elements of jazz, country, and rock into his brand of blues. He is brilliant in the midtempo blues "Runnin' Away," though none of the solos that follow measure up to the leader's. "Hattie's Bathtub" is a catchy blues waltz. But it is the extended composition "Cup Full of Dreams" that showcases Harris' lyricism on his instrument. One amusing aspect of the LP is the obvious presence of guitarist Harvey Mandel, who evidently could not be named for contractual reasons, though his photo is barely disguised with an old-fashioned black bar over his eyes. Just a few years after this record was released, poor health put an end to the violinist's career.
Состав
Bass Guitar – Larry Taylor
Drums – Paul Lagos
Electric Piano, Percussion – Dewey Terry
Guitar – Mystery Guest (3), Randy Resnik*, Victor Conte Jr.*
Producer – Don "Sugarcane" Harris, Jerry Fox
Violin, Written-By – Don "Sugarcane" Harris
-
[Профиль] [ЛС]
Показать сообщения:    
Ответить на тему

Текущее время: 01-Дек 08:13

Часовой пояс: UTC + 3



Вы не можете начинать темы
Вы не можете отвечать на сообщения
Вы не можете редактировать свои сообщения
Вы не можете удалять свои сообщения
Вы не можете голосовать в опросах
Вы не можете прикреплять файлы к сообщениям
Вы не можете скачивать файлы