(hard rock, instrumental rock) Paul Gilbert - коллекция 1991-2015 (13 альбомов), FLAC (image+.cue, tracks+.cue), lossless

Ответить на тему
 
Автор Сообщение

Direktor_49 ®

Стаж: 4 года 1 месяц

Сообщений: 593

Откуда: Калининград

Создавать темы 25-Окт-2020 14:18

[Цитировать]

Paul Gilbert - коллекция 1991-2015 (13 альбомов)
Жанр: hard rock, instrumental rock
Носитель: CD
Год издания: 1991-2014
Страна исполнителя (группы): US
1991. Paul Gilbert - Tribute To Jimi Hendrix {1991, Germany, MGI Records MGR CD 1018}
Страна-производитель диска: GermanyГод первого выпуска: 1991
Год настоящего издания: 1991
Издатель (лейбл): MGI Records
Номер по каталогу: MGR CD 1018
Format: CD, Album
Аудиокодек: FLAC (*.flac)
Тип рипа: image+.cue
Битрейт аудио: lossless
Продолжительность: 00:41:21
Источник (релизер): ed2k
Наличие сканов в содержимом раздачи: да
Треклист:
01. Red House (09:12)
02. Hey Joe (05:30)
03. Highway Chile (07:38)
04. Midnight (09:40)
05. Purple Haze (09:21)
Лог создания рипа
EAC extraction logfile from 8. January 2006, 20:01 for CD
Unknown Artist / Unknown Title
Used drive : HL-DT-STDVDRAM GSA-4082B Adapter: 1 ID: 0
Read mode : Secure with NO C2, accurate stream, disable cache
Read offset correction : 667
Overread into Lead-In and Lead-Out : No
Used output format : C:\Documents and Settings\j\Mis documentos\EAC\MAC.EXE (Monkey's Audio Lossless Encoder)
High Lossless Compression
Other options :
Fill up missing offset samples with silence : Yes
Delete leading and trailing silent blocks : No
Native Win32 interface for Win NT & 2000
Range status and errors
Selected range
Filename C:\Documents and Settings\j\Mis documentos\Nueva carpeta\CDImage.wav
Peak level 85.3 %
Range quality 100.0 %
CRC D05683DD
Copy OK
No errors occured
End of status report
Содержание индексной карты (.CUE)
REM GENRE Rock
REM DATE 1991
PERFORMER "Paul Gilbert"
TITLE "Tribute to Jimi Hendrix"
FILE "Paul Gilbert - Tribute to Jimi Hendrix.wav" WAVE
TRACK 01 AUDIO
TITLE "Red House"
PERFORMER "Paul Gilbert"
INDEX 01 00:00:00
TRACK 02 AUDIO
TITLE "Hey Joe"
PERFORMER "Paul Gilbert"
INDEX 00 09:12:25
INDEX 01 09:12:50
TRACK 03 AUDIO
TITLE "Highway Chile"
PERFORMER "Paul Gilbert"
INDEX 00 14:42:00
INDEX 01 14:42:12
TRACK 04 AUDIO
TITLE "Midnight"
PERFORMER "Paul Gilbert"
INDEX 00 22:19:62
INDEX 01 22:20:12
TRACK 05 AUDIO
TITLE "Purple Haze"
PERFORMER "Paul Gilbert"
INDEX 00 31:59:50
INDEX 01 31:59:62
Доп. информация: Записи с концерта на Frankfurt Jazz Festival 2.07.1991.
Состав

Paul Gilbert: guitar
Rick Lee: drums
Horst Polland: bass
1998. Paul Gilbert - Flying Dog {1998, Japan, Mercury PHCR-83}
Страна-производитель диска: Japan
Год первого выпуска: 1998
Год настоящего издания: 1998
Издатель (лейбл): Mercury Music Entertainment Co., Ltd. ?–
Номер по каталогу: PHCR-83 / 8DDB-1001
Format: CD, Album
Аудиокодек: FLAC (*.flac)
Тип рипа: tracks+.cue
Битрейт аудио: lossless
Источник (релизер): avxhm.se
Наличие сканов в содержимом раздачи: да
CD1:
Продолжительность: 00:50:27
Треклист:
01. Get It (02:29)
02. Girl Crazy (03:56)
03. Be My Wife (05:59)
04. Mr. Skin (03:54)
05. Beautiful Girls Are Insane (03:21)
06. Midnight Maryanne (03:35)
07. Heavy Disco Trip (03:21)
08. Kate Is A Star (04:55)
09. Down To Mexico (03:31)
10. Tell The Truth (03:49)
11. Wrong Man (03:55)
12. Gilberto Concerto (07:49)
Лог создания рипа
Exact Audio Copy V1.0 beta 4 from 7. December 2014
EAC extraction logfile from 3. August 2016, 19:09
Paul Gilbert / Flying Dog
Used drive : Optiarc DVD RW AD-7240S Adapter: 1 ID: 1
Read mode : Secure
Utilize accurate stream : Yes
Defeat audio cache : Yes
Make use of C2 pointers : No
Read offset correction : 48
Overread into Lead-In and Lead-Out : No
Fill up missing offset samples with silence : Yes
Delete leading and trailing silent blocks : No
Null samples used in CRC calculations : Yes
Used interface : Native Win32 interface for Win NT & 2000
Gap handling : Appended to previous track
Used output format : User Defined Encoder
Selected bitrate : 768 kBit/s
Quality : High
Add ID3 tag : No
Command line compressor : C:\Program Files (x86)\Exact Audio Copy\Flac\flac.exe
Additional command line options : -8 -V -T "ARTIST=%artist%" -T "TITLE=%title%" -T "ALBUM=%albumtitle%" -T "DATE=%year%" -T "TRACKNUMBER=%tracknr%" -T "TOTALTRACKS=%numtracks%" -T "GENRE=%genre%" -T "ALBUMARTIST=%albumartist%" -T "ALBUM ARTIST=%albumartist%" -T "COMMENT=EAC Secure Mode, Test & Copy, AccurateRip, FLAC -8" %source%
TOC of the extracted CD
Track | Start | Length | Start sector | End sector
---------------------------------------------------------
1 | 0:00.00 | 2:28.57 | 0 | 11156
2 | 2:28.57 | 3:55.63 | 11157 | 28844
3 | 6:24.45 | 5:58.65 | 28845 | 55759
4 | 12:23.35 | 3:53.47 | 55760 | 73281
5 | 16:17.07 | 3:20.33 | 73282 | 88314
6 | 19:37.40 | 3:34.17 | 88315 | 104381
7 | 23:11.57 | 3:20.33 | 104382 | 119414
8 | 26:32.15 | 4:54.15 | 119415 | 141479
9 | 31:26.30 | 3:30.60 | 141480 | 157289
10 | 34:57.15 | 3:47.72 | 157290 | 174386
11 | 38:45.12 | 3:53.73 | 174387 | 191934
12 | 42:39.10 | 7:48.47 | 191935 | 227081
Track 1
Filename C:\Users\Администратор\Desktop\Paul Gilbert - Flying dog 1998\01 Get It.wav
Pre-gap length 0:00:02.00
Peak level 96.0 %
Extraction speed 2.2 X
Track quality 100.0 %
Test CRC 699C330B
Copy CRC 699C330B
Cannot be verified as accurate (confidence 4) [3E2079D9], AccurateRip returned [5E77371E] (AR v2)
Copy OK
Track 2
Filename C:\Users\Администратор\Desktop\Paul Gilbert - Flying dog 1998\02 Girl Crazy.wav
Peak level 96.0 %
Extraction speed 2.7 X
Track quality 100.0 %
Test CRC E457A39E
Copy CRC E457A39E
Cannot be verified as accurate (confidence 4) [E21743F6], AccurateRip returned [F2E3176C] (AR v2)
Copy OK
Track 3
Filename C:\Users\Администратор\Desktop\Paul Gilbert - Flying dog 1998\03 Be My Wife.wav
Peak level 96.0 %
Extraction speed 2.8 X
Track quality 99.9 %
Test CRC 41C07DEF
Copy CRC 41C07DEF
Cannot be verified as accurate (confidence 4) [EA713B7C], AccurateRip returned [25594A21] (AR v2)
Copy OK
Track 4
Filename C:\Users\Администратор\Desktop\Paul Gilbert - Flying dog 1998\04 Mr. Skin.wav
Peak level 96.0 %
Extraction speed 3.1 X
Track quality 100.0 %
Test CRC EE1C5566
Copy CRC EE1C5566
Cannot be verified as accurate (confidence 4) [1B523CD1], AccurateRip returned [7D5B4678] (AR v2)
Copy OK
Track 5
Filename C:\Users\Администратор\Desktop\Paul Gilbert - Flying dog 1998\05 Beautiful Girls Are Insane.wav
Peak level 96.0 %
Extraction speed 3.2 X
Track quality 100.0 %
Test CRC 4E51C405
Copy CRC 4E51C405
Cannot be verified as accurate (confidence 4) [AFA93562], AccurateRip returned [4CFE7350] (AR v2)
Copy OK
Track 6
Filename C:\Users\Администратор\Desktop\Paul Gilbert - Flying dog 1998\06 Midnight Maryanne.wav
Peak level 96.0 %
Extraction speed 3.4 X
Track quality 100.0 %
Test CRC B18A7113
Copy CRC B18A7113
Cannot be verified as accurate (confidence 4) [78AF71E2], AccurateRip returned [E7076BC2] (AR v2)
Copy OK
Track 7
Filename C:\Users\Администратор\Desktop\Paul Gilbert - Flying dog 1998\07 Heavy Disco Trip.wav
Peak level 96.0 %
Extraction speed 3.5 X
Track quality 100.0 %
Test CRC 91AB3313
Copy CRC 91AB3313
Cannot be verified as accurate (confidence 4) [3F04487F], AccurateRip returned [FDF1AF72] (AR v2)
Copy OK
Track 8
Filename C:\Users\Администратор\Desktop\Paul Gilbert - Flying dog 1998\08 Kate Is A Star.wav
Pre-gap length 0:00:01.58
Peak level 96.0 %
Extraction speed 3.9 X
Track quality 100.0 %
Test CRC 78904FFD
Copy CRC 78904FFD
Cannot be verified as accurate (confidence 4) [E25C20C7], AccurateRip returned [6D87F3C9] (AR v2)
Copy OK
Track 9
Filename C:\Users\Администратор\Desktop\Paul Gilbert - Flying dog 1998\09 Down To Mexico.wav
Peak level 96.0 %
Extraction speed 3.4 X
Track quality 99.9 %
Test CRC FC817558
Copy CRC FC817558
Cannot be verified as accurate (confidence 4) [EBD96404], AccurateRip returned [C685387D] (AR v2)
Copy OK
Track 10
Filename C:\Users\Администратор\Desktop\Paul Gilbert - Flying dog 1998\10 Tell The Truth.wav
Peak level 96.0 %
Extraction speed 4.0 X
Track quality 100.0 %
Test CRC 41A19DA4
Copy CRC 41A19DA4
Cannot be verified as accurate (confidence 4) [2FCB28B4], AccurateRip returned [D8939DDB] (AR v2)
Copy OK
Track 11
Filename C:\Users\Администратор\Desktop\Paul Gilbert - Flying dog 1998\11 Wrong Man.wav
Peak level 96.0 %
Extraction speed 4.2 X
Track quality 100.0 %
Test CRC 5F71DEA0
Copy CRC 5F71DEA0
Cannot be verified as accurate (confidence 4) [F1A3D999], AccurateRip returned [ABC20F9E] (AR v2)
Copy OK
Track 12
Filename C:\Users\Администратор\Desktop\Paul Gilbert - Flying dog 1998\12 Gilberto Concerto.wav
Peak level 96.0 %
Extraction speed 4.8 X
Track quality 100.0 %
Test CRC 71F34635
Copy CRC 71F34635
Cannot be verified as accurate (confidence 5) [FFE44FA3], AccurateRip returned [84EF4A72] (AR v2)
Copy OK
No tracks could be verified as accurate
You may have a different pressing from the one(s) in the database
No errors occurred
End of status report
---- CUETools DB Plugin V2.1.4
[CTDB TOCID: EtVJJR2GDaAcww53Q605Wn16jXE-] found
Submit result: already submitted
Track | CTDB Status
1 | (19/19) Accurately ripped
2 | (19/19) Accurately ripped
3 | (19/19) Accurately ripped
4 | (19/19) Accurately ripped
5 | (19/19) Accurately ripped
6 | (19/19) Accurately ripped
7 | (19/19) Accurately ripped
8 | (19/19) Accurately ripped
9 | (19/19) Accurately ripped
10 | (19/19) Accurately ripped
11 | (19/19) Accurately ripped
12 | (19/19) Accurately ripped
==== Log checksum F89A66AB74F6D111DA75DE0AF41FA17F31E5632C9552F81FB1397345AD2850FA ====
Содержание индексной карты (.CUE)
REM GENRE "Hard Rock"
REM DATE 1998
REM DISCID C00BD30C
REM COMMENT "ExactAudioCopy v1.0b4"
PERFORMER "Paul Gilbert"
TITLE "Flying Dog "
FILE "01 Get It.wav" WAVE
TRACK 01 AUDIO
TITLE "Get It"
PERFORMER "Paul Gilbert"
INDEX 01 00:00:00
FILE "02 Girl Crazy.wav" WAVE
TRACK 02 AUDIO
TITLE "Girl Crazy"
PERFORMER "Paul Gilbert"
INDEX 01 00:00:00
FILE "03 Be My Wife.wav" WAVE
TRACK 03 AUDIO
TITLE "Be My Wife"
PERFORMER "Paul Gilbert"
INDEX 01 00:00:00
FILE "04 Mr. Skin.wav" WAVE
TRACK 04 AUDIO
TITLE "Mr. Skin"
PERFORMER "Paul Gilbert"
INDEX 01 00:00:00
FILE "05 Beautiful Girls Are Insane.wav" WAVE
TRACK 05 AUDIO
TITLE "Beautiful Girls Are Insane"
PERFORMER "Paul Gilbert"
INDEX 01 00:00:00
FILE "06 Midnight Maryanne.wav" WAVE
TRACK 06 AUDIO
TITLE "Midnight Maryanne"
PERFORMER "Paul Gilbert"
INDEX 01 00:00:00
FILE "07 Heavy Disco Trip.wav" WAVE
TRACK 07 AUDIO
TITLE "Heavy Disco Trip"
PERFORMER "Paul Gilbert"
INDEX 01 00:00:00
TRACK 08 AUDIO
TITLE "Kate Is A Star"
PERFORMER "Paul Gilbert"
INDEX 00 03:18:50
FILE "08 Kate Is A Star.wav" WAVE
INDEX 01 00:00:00
FILE "09 Down To Mexico.wav" WAVE
TRACK 09 AUDIO
TITLE "Down To Mexico"
PERFORMER "Paul Gilbert"
INDEX 01 00:00:00
FILE "10 Tell The Truth.wav" WAVE
TRACK 10 AUDIO
TITLE "Tell The Truth"
PERFORMER "Paul Gilbert"
INDEX 01 00:00:00
FILE "11 Wrong Man.wav" WAVE
TRACK 11 AUDIO
TITLE "Wrong Man"
PERFORMER "Paul Gilbert"
INDEX 01 00:00:00
FILE "12 Gilberto Concerto.wav" WAVE
TRACK 12 AUDIO
TITLE "Gilberto Concerto"
PERFORMER "Paul Gilbert"
INDEX 01 00:00:00
Лог проверки качества
AUDIOCHECKER v2.0 beta (build 457) - by Dester - opdester@freemail.hu
~~~~~~~~~~~~~~~~~~~~~~~~~~~~~~~~~~
-=== DO NOT EDIT THIS FILE! ===-
Path: ...\CD1
01 -=- 01 Get It.flac -=- CDDA (99%)
02 -=- 02 Girl Crazy.flac -=- CDDA (99%)
03 -=- 03 Be My Wife.flac -=- CDDA (100%)
04 -=- 04 Mr. Skin.flac -=- CDDA (100%)
05 -=- 05 Beautiful Girls Are Insane.flac -=- CDDA (100%)
06 -=- 06 Midnight Maryanne.flac -=- CDDA (100%)
07 -=- 07 Heavy Disco Trip.flac -=- CDDA (100%)
08 -=- 08 Kate Is A Star.flac -=- CDDA (100%)
09 -=- 09 Down To Mexico.flac -=- CDDA (100%)
10 -=- 10 Tell The Truth.flac -=- CDDA (100%)
11 -=- 11 Wrong Man.flac -=- CDDA (100%)
12 -=- 12 Gilberto Concerto.flac -=- CDDA (92%)
Summary 99,17% CDDA
CD2:
Продолжительность: 00:07:48
Треклист:
01. Las Vegas Christmas (02:43)
02. Barbie Bang Your Head (05:06)
Лог создания рипа
Exact Audio Copy V1.0 beta 4 from 7. December 2014
EAC extraction logfile from 3. August 2016, 19:31
Paul Gilbert / Flying Dog
Used drive : Optiarc DVD RW AD-7240S Adapter: 1 ID: 1
Read mode : Secure
Utilize accurate stream : Yes
Defeat audio cache : Yes
Make use of C2 pointers : No
Read offset correction : 48
Overread into Lead-In and Lead-Out : No
Fill up missing offset samples with silence : Yes
Delete leading and trailing silent blocks : No
Null samples used in CRC calculations : Yes
Used interface : Native Win32 interface for Win NT & 2000
Gap handling : Appended to previous track
Used output format : User Defined Encoder
Selected bitrate : 768 kBit/s
Quality : High
Add ID3 tag : No
Command line compressor : C:\Program Files (x86)\Exact Audio Copy\Flac\flac.exe
Additional command line options : -8 -V -T "ARTIST=%artist%" -T "TITLE=%title%" -T "ALBUM=%albumtitle%" -T "DATE=%year%" -T "TRACKNUMBER=%tracknr%" -T "TOTALTRACKS=%numtracks%" -T "GENRE=%genre%" -T "ALBUMARTIST=%albumartist%" -T "ALBUM ARTIST=%albumartist%" -T "COMMENT=EAC Secure Mode, Test & Copy, AccurateRip, FLAC -8" %source%
TOC of the extracted CD
Track | Start | Length | Start sector | End sector
---------------------------------------------------------
1 | 0:00.00 | 2:42.60 | 0 | 12209
2 | 2:42.60 | 5:05.37 | 12210 | 35121
Track 1
Filename C:\Users\Администратор\Desktop\Paul Gilbert - Flying dog 1998\01 Las Vegas Christmas.wav
Pre-gap length 0:00:02.00
Peak level 92.6 %
Extraction speed 2.0 X
Track quality 100.0 %
Test CRC 8F545935
Copy CRC 8F545935
Cannot be verified as accurate (confidence 4) [BBFCDF8B], AccurateRip returned [ECDE7DF8] (AR v2)
Copy OK
Track 2
Filename C:\Users\Администратор\Desktop\Paul Gilbert - Flying dog 1998\02 barbie bang your head.wav
Pre-gap length 0:00:02.08
Peak level 96.0 %
Extraction speed 2.2 X
Track quality 100.0 %
Test CRC 86282FFE
Copy CRC 86282FFE
Cannot be verified as accurate (confidence 4) [BC1A0E0E], AccurateRip returned [3B656E1E] (AR v2)
Copy OK
No tracks could be verified as accurate
You may have a different pressing from the one(s) in the database
No errors occurred
End of status report
---- CUETools DB Plugin V2.1.4
[CTDB TOCID: ajigIi0tv0ebkUKPbrr62QC7snI-] found
Submit result: ajigIi0tv0ebkUKPbrr62QC7snI- has been confirmed
Track | CTDB Status
1 | (13/13) Accurately ripped
2 | (13/13) Accurately ripped
==== Log checksum 7EE4D5A8C82AD264B61DEB062C636620154C71A9956CDB06A660707D0344C630 ====
Содержание индексной карты (.CUE)
REM GENRE "Hard Rock"
REM DATE 1998
REM DISCID 0D01D402
REM COMMENT "ExactAudioCopy v1.0b4"
PERFORMER "Paul Gilbert"
TITLE "Flying Dog"
FILE "01 Las Vegas Christmas.wav" WAVE
TRACK 01 AUDIO
TITLE "Las Vegas Christmas"
PERFORMER "Paul Gilbert"
INDEX 01 00:00:00
TRACK 02 AUDIO
TITLE "Barbie Bang Your Head"
PERFORMER "Paul Gilbert"
INDEX 00 02:40:52
FILE "02 Barbie Bang Your Head.wav" WAVE
INDEX 01 00:00:00
Лог проверки качества
AUDIOCHECKER v2.0 beta (build 457) - by Dester - opdester@freemail.hu
~~~~~~~~~~~~~~~~~~~~~~~~~~~~~~~~~~
-=== DO NOT EDIT THIS FILE! ===-
Path: ...\CD2
01 -=- 01 Las Vegas Christmas.flac -=- CDDA (99%)
02 -=- 02 Barbie Bang Your Head.flac -=- CDDA (100%)
Summary 99,50% CDDA
1999. Paul Gilbert - Beehive Live {1999, Japan, Mercury PHCR-90}
Жанр: Hard Rock, Instrumental Rock
Страна-производитель диска: Japan
Год первого выпуска: 1999
Год настоящего издания: 1999
Издатель (лейбл): Mercury
Номер по каталогу: PHCR-90
Format: HDCD, Album, Live
Аудиокодек: FLAC (*.flac)
Тип рипа: tracks+.cue
Битрейт аудио: lossless
Продолжительность: 01:00:28
Источник (релизер): kinozal.tv
Наличие сканов в содержимом раздачи: да
Треклист:
01. Heavy Disco trip (03:26)
02. Be my wife (05:25)
03. Get it (02:34)
04. Mr. Skin (04:48)
05. Down to Mexico (03:44)
06. Girls who can read your mind (03:27)
07. Tell the truth (07:41)
08. Bumblebee (04:23)
09. Million dollar smile (02:19)
10. Hold her tight (03:32)
11. I’m just in love (02:39)
12. Red rooster (05:36)
13. To be with you (05:42)
14. Karn Evil 9 (05:13)
Лог создания рипа
Exact Audio Copy V1.0 beta 4 from 7. December 2014
EAC extraction logfile from 19. September 2016, 23:30
Paul Gilbert / Beehive Live
Used drive : Optiarc DVD RW AD-7240S Adapter: 1 ID: 1
Read mode : Secure
Utilize accurate stream : Yes
Defeat audio cache : Yes
Make use of C2 pointers : No
Read offset correction : 48
Overread into Lead-In and Lead-Out : No
Fill up missing offset samples with silence : Yes
Delete leading and trailing silent blocks : No
Null samples used in CRC calculations : Yes
Used interface : Native Win32 interface for Win NT & 2000
Gap handling : Appended to previous track
Used output format : User Defined Encoder
Selected bitrate : 768 kBit/s
Quality : High
Add ID3 tag : No
Command line compressor : C:\Program Files (x86)\Exact Audio Copy\Flac\flac.exe
Additional command line options : -8 -V -T "ARTIST=%artist%" -T "ALBUM=%albumtitle%" -T "DATE=%year%" -T
"GENRE=%genre%" -T "COMMENT=EAC FLAC -8" %s
TOC of the extracted CD
Track | Start | Length | Start sector | End sector
---------------------------------------------------------
1 | 0:00.00 | 3:25.65 | 0 | 15439
2 | 3:25.65 | 5:25.22 | 15440 | 39836
3 | 8:51.12 | 2:33.70 | 39837 | 51381
4 | 11:25.07 | 4:48.08 | 51382 | 72989
5 | 16:13.15 | 3:44.07 | 72990 | 89796
6 | 19:57.22 | 3:26.68 | 89797 | 105314
7 | 23:24.15 | 7:41.10 | 105315 | 139899
8 | 31:05.25 | 4:22.45 | 139900 | 159594
9 | 35:27.70 | 2:18.52 | 159595 | 169996
10 | 37:46.47 | 3:31.55 | 169997 | 185876
11 | 41:18.27 | 2:39.05 | 185877 | 197806
12 | 43:57.32 | 5:36.15 | 197807 | 223021
13 | 49:33.47 | 5:41.40 | 223022 | 248636
14 | 55:15.12 | 5:13.13 | 248637 | 272124
Track 1
Filename C:\Users\Администратор\Desktop\Paul Gilbert - Beehive Live 1999\01 Heavy Disco Trip.wav
Pre-gap length 0:00:02.00
Peak level 96.6 %
Extraction speed 2.5 X
Track quality 100.0 %
Test CRC A966A88C
Copy CRC A966A88C
Cannot be verified as accurate (confidence 4) [5E9C8F0A], AccurateRip returned [AC61F633] (AR v2)
Copy OK
Track 2
Filename C:\Users\Администратор\Desktop\Paul Gilbert - Beehive Live 1999\02 Be My Wife.wav
Peak level 96.6 %
Extraction speed 2.9 X
Track quality 100.0 %
Test CRC C5CEFBF1
Copy CRC C5CEFBF1
Cannot be verified as accurate (confidence 4) [437C00C9], AccurateRip returned [C0A14A06] (AR v2)
Copy OK
Track 3
Filename C:\Users\Администратор\Desktop\Paul Gilbert - Beehive Live 1999\03 Get It.wav
Peak level 96.6 %
Extraction speed 2.7 X
Track quality 100.0 %
Test CRC 4769FF6D
Copy CRC 4769FF6D
Cannot be verified as accurate (confidence 4) [3507E09D], AccurateRip returned [A4B6112A] (AR v2)
Copy OK
Track 4
Filename C:\Users\Администратор\Desktop\Paul Gilbert - Beehive Live 1999\04 Mr. Skin.wav
Peak level 96.6 %
Extraction speed 3.2 X
Track quality 100.0 %
Test CRC 17146247
Copy CRC 17146247
Cannot be verified as accurate (confidence 4) [4738B5DF], AccurateRip returned [AC910980] (AR v2)
Copy OK
Track 5
Filename C:\Users\Администратор\Desktop\Paul Gilbert - Beehive Live 1999\05 Down To Mexico.wav
Peak level 96.6 %
Extraction speed 2.9 X
Track quality 99.9 %
Test CRC 4DF7E516
Copy CRC 4DF7E516
Cannot be verified as accurate (confidence 4) [BE58D2A7], AccurateRip returned [05275425] (AR v2)
Copy OK
Track 6
Filename C:\Users\Администратор\Desktop\Paul Gilbert - Beehive Live 1999\06 Girls Who Can Read Your
Mind.wav
Peak level 96.6 %
Extraction speed 3.4 X
Track quality 100.0 %
Test CRC 676A7C9A
Copy CRC 676A7C9A
Cannot be verified as accurate (confidence 4) [706FD1C8], AccurateRip returned [D237B758] (AR v2)
Copy OK
Track 7
Filename C:\Users\Администратор\Desktop\Paul Gilbert - Beehive Live 1999\07 Tell The Truth.wav
Peak level 96.6 %
Extraction speed 3.7 X
Track quality 99.9 %
Test CRC 511136A8
Copy CRC 511136A8
Cannot be verified as accurate (confidence 4) [8517CDF7], AccurateRip returned [048D7204] (AR v2)
Copy OK
Track 8
Filename C:\Users\Администратор\Desktop\Paul Gilbert - Beehive Live 1999\08 Bumblebee.wav
Peak level 96.6 %
Extraction speed 3.6 X
Track quality 99.9 %
Test CRC 663092F3
Copy CRC 663092F3
Cannot be verified as accurate (confidence 4) [76517BFC], AccurateRip returned [357F2AF8] (AR v2)
Copy OK
Track 9
Filename C:\Users\Администратор\Desktop\Paul Gilbert - Beehive Live 1999\09 Million Dollar Smile.wav
Peak level 96.6 %
Extraction speed 3.7 X
Track quality 100.0 %
Test CRC 32106151
Copy CRC 32106151
Cannot be verified as accurate (confidence 4) [7676E6B1], AccurateRip returned [99EB933A] (AR v2)
Copy OK
Track 10
Filename C:\Users\Администратор\Desktop\Paul Gilbert - Beehive Live 1999\10 Hold Her Tight.wav
Peak level 96.6 %
Extraction speed 4.1 X
Track quality 100.0 %
Test CRC C48FF11A
Copy CRC C48FF11A
Cannot be verified as accurate (confidence 4) [1F3087C8], AccurateRip returned [B99D5C78] (AR v2)
Copy OK
Track 11
Filename C:\Users\Администратор\Desktop\Paul Gilbert - Beehive Live 1999\11 I'm Just In Love.wav
Peak level 96.6 %
Extraction speed 4.0 X
Track quality 100.0 %
Test CRC EB939C0F
Copy CRC EB939C0F
Cannot be verified as accurate (confidence 4) [57452440], AccurateRip returned [A90F4162] (AR v2)
Copy OK
Track 12
Filename C:\Users\Администратор\Desktop\Paul Gilbert - Beehive Live 1999\12 Red Rooster.wav
Peak level 96.6 %
Extraction speed 4.6 X
Track quality 100.0 %
Test CRC DA5DF5D1
Copy CRC DA5DF5D1
Cannot be verified as accurate (confidence 4) [DE19F5FC], AccurateRip returned [44214CD1] (AR v2)
Copy OK
Track 13
Filename C:\Users\Администратор\Desktop\Paul Gilbert - Beehive Live 1999\13 To Be With You.wav
Peak level 96.6 %
Extraction speed 4.8 X
Track quality 100.0 %
Test CRC 9709FF5D
Copy CRC 9709FF5D
Cannot be verified as accurate (confidence 4) [59E64145], AccurateRip returned [575E84A6] (AR v2)
Copy OK
Track 14
Filename C:\Users\Администратор\Desktop\Paul Gilbert - Beehive Live 1999\14 Karn Evil 9.wav
Peak level 96.6 %
Extraction speed 5.0 X
Track quality 100.0 %
Test CRC DA4264DA
Copy CRC DA4264DA
Cannot be verified as accurate (confidence 4) [CEBB5F29], AccurateRip returned [46DE202B] (AR v2)
Copy OK
No tracks could be verified as accurate
You may have a different pressing from the one(s) in the database
No errors occurred
End of status report
---- CUETools DB Plugin V2.1.4
[CTDB TOCID: ezvno8Mzl_TYcPFLcQOJJfDVlBc-] found
Submit result: ezvno8Mzl_TYcPFLcQOJJfDVlBc- has been confirmed
Track | CTDB Status
1 | (13/17) Accurately ripped
2 | (13/17) Accurately ripped
3 | (13/17) Accurately ripped
4 | (13/17) Accurately ripped
5 | (13/17) Accurately ripped
6 | (13/17) Accurately ripped
7 | (13/17) Accurately ripped
8 | (17/17) Accurately ripped
9 | (13/17) Accurately ripped
10 | (13/17) Accurately ripped
11 | (13/17) Accurately ripped
12 | (17/17) Accurately ripped
13 | (13/17) Accurately ripped
14 | (16/17) Accurately ripped
==== Log checksum 74FE405DE5217B63987C0A66286FAC9B051E70A4E67664368A089FA630565FCA ====
Содержание индексной карты (.CUE)
REM GENRE Rock
REM DATE 1999
REM DISCID DC0E2C0E
REM COMMENT "ExactAudioCopy v1.0b4"
PERFORMER "Paul Gilbert"
TITLE "Beehive Live"
FILE "01 Heavy Disco Trip.wav" WAVE
TRACK 01 AUDIO
TITLE "Heavy Disco Trip"
PERFORMER "Paul Gilbert"
INDEX 01 00:00:00
FILE "02 Be My Wife.wav" WAVE
TRACK 02 AUDIO
TITLE "Be My Wife"
PERFORMER "Paul Gilbert"
INDEX 01 00:00:00
FILE "03 Get It.wav" WAVE
TRACK 03 AUDIO
TITLE "Get It"
PERFORMER "Paul Gilbert"
INDEX 01 00:00:00
FILE "04 Mr. Skin.wav" WAVE
TRACK 04 AUDIO
TITLE "Mr. Skin"
PERFORMER "Paul Gilbert"
INDEX 01 00:00:00
FILE "05 Down To Mexico.wav" WAVE
TRACK 05 AUDIO
TITLE "Down To Mexico"
PERFORMER "Paul Gilbert"
INDEX 01 00:00:00
FILE "06 Girls Who Can Read Your Mind.wav" WAVE
TRACK 06 AUDIO
TITLE "Girls Who Can Read Your Mind"
PERFORMER "Paul Gilbert"
INDEX 01 00:00:00
FILE "07 Tell The Truth.wav" WAVE
TRACK 07 AUDIO
TITLE "Tell The Truth"
PERFORMER "Paul Gilbert"
INDEX 01 00:00:00
FILE "08 Bumblebee.wav" WAVE
TRACK 08 AUDIO
TITLE "Bumblebee"
PERFORMER "Paul Gilbert"
INDEX 01 00:00:00
FILE "09 Million Dollar Smile.wav" WAVE
TRACK 09 AUDIO
TITLE "Million Dollar Smile"
PERFORMER "Paul Gilbert"
INDEX 01 00:00:00
FILE "10 Hold Her Tight.wav" WAVE
TRACK 10 AUDIO
TITLE "Hold Her Tight"
PERFORMER "Paul Gilbert"
INDEX 01 00:00:00
FILE "11 I'm Just In Love.wav" WAVE
TRACK 11 AUDIO
TITLE "I'm Just In Love"
PERFORMER "Paul Gilbert"
INDEX 01 00:00:00
FILE "12 Red Rooster.wav" WAVE
TRACK 12 AUDIO
TITLE "Red Rooster"
PERFORMER "Paul Gilbert"
INDEX 01 00:00:00
FILE "13 To Be With You.wav" WAVE
TRACK 13 AUDIO
TITLE "To Be With You"
PERFORMER "Paul Gilbert"
INDEX 01 00:00:00
FILE "14 Karn Evil 9.wav" WAVE
TRACK 14 AUDIO
TITLE "Karn Evil 9"
PERFORMER "Paul Gilbert"
INDEX 01 00:00:00
Лог проверки качества
AUDIOCHECKER v2.0 beta (build 457) - by Dester - opdester@freemail.hu
~~~~~~~~~~~~~~~~~~~~~~~~~~~~~~~~~~
-=== DO NOT EDIT THIS FILE! ===-
Path: ...\Paul Gilbert - Beehive Live 1999
01 -=- 01 Heavy Disco Trip.flac -=- CDDA (100%)
02 -=- 02 Be My Wife.flac -=- CDDA (100%)
03 -=- 03 Get It.flac -=- CDDA (100%)
04 -=- 04 Mr. Skin.flac -=- CDDA (100%)
05 -=- 05 Down To Mexico.flac -=- CDDA (100%)
06 -=- 06 Girls Who Can Read Your Mind.flac -=- CDDA (100%)
07 -=- 07 Tell The Truth.flac -=- CDDA (100%)
08 -=- 08 Bumblebee.flac -=- CDDA (100%)
09 -=- 09 Million Dollar Smile.flac -=- CDDA (100%)
10 -=- 10 Hold Her Tight.flac -=- CDDA (100%)
11 -=- 11 I'm Just In Love.flac -=- CDDA (100%)
12 -=- 12 Red Rooster.flac -=- CDDA (100%)
13 -=- 13 To Be With You.flac -=- CDDA (100%)
14 -=- 14 Karn Evil 9.flac -=- CDDA (100%)
Summary 100,00% CDDA
2000. Paul Gilbert - Alligator Farm {2000, EU, Mascot Records M 7053 2}
Страна-производитель диска: EU
Год первого выпуска: 2000
Год настоящего издания: 2000
Издатель (лейбл): Mascot Records
Номер по каталогу: M 7053 2
Format: HDCD, Album
Аудиокодек: FLAC (*.flac)
Тип рипа: image+.cue
Битрейт аудио: lossless
Продолжительность: 00:52:49
Источник (релизер): darksage.ru
Наличие сканов в содержимом раздачи: да
Треклист:
01. Better Chords (01:03)
02. Individually Twisted (04:05)
03. Cut, Cut, Cut (03:22)
04. Alligator Farm (03:42)
05. Attitude Boy Will Overcome (04:03)
06. 2 Become 1 (05:16)
(Richard Stannard/Matt Rowe/Spice Girls)
07. Lancelot Link (00:35)
08. Rosalinda Told Me (03:57)
09. Let the Computer Decide (Instrumental) (03:58)
10. Koto Girl (03:35)
11. Dreamed Victoria (04:23)
12. Six Billion People (01:38)
13. Ballad of the Last Lions (09:31)
(Jimi Kidd)
14. Whole Lotta Sonata (Instrumental) (03:33)
(Wolfgang Amadeus Mozart)
Лог создания рипа
EAC extraction logfile from 7. May 2006, 11:20 for CD
Paul Gilbert / Alligator Farm
Used drive : SONY DVD RW DW-Q28A Adapter: 0 ID: 0
Read mode : Secure with NO C2, accurate stream, disable cache
Read offset correction : 12
Overread into Lead-In and Lead-Out : No
Used output format : C:\Archivos de programa\Exact Audio Copy\flac.exe (User Defined Encoder)
32 kBit/s
Additional command line options : -6 -V -T "artist=%a" -T "title=%t" -T "album=%g" -T "date=%y" -T "tracknumber=%n" -T "genre=%m" -T "comment=EAC 0.9beta4 / FLAC 1.1.0 q6" %s
Other options :
Fill up missing offset samples with silence : Yes
Delete leading and trailing silent blocks : No
Native Win32 interface for Win NT & 2000
Range status and errors
Selected range
Filename C:\Documents and Settings\xxx\Escritorio\ripeados\temp2\CDImage.flac.wav
Peak level 96.6 %
Range quality 99.9 %
CRC FF69BBF1
Copy OK
No errors occured
End of status report
Содержание индексной карты (.CUE)
REM GENRE Rock
REM DATE 1991
PERFORMER "Paul Gilbert"
TITLE "Alligator Farm"
FILE "Paul Gilbert - Alligator Farm.flac" WAVE
TRACK 01 AUDIO
TITLE "Better Chords"
PERFORMER "Paul Gilbert"
INDEX 01 00:00:00
TRACK 02 AUDIO
TITLE "Individually Twisted"
PERFORMER "Paul Gilbert"
INDEX 01 01:03:50
TRACK 03 AUDIO
TITLE "Cut, Cut, Cut"
PERFORMER "Paul Gilbert"
INDEX 01 05:08:65
TRACK 04 AUDIO
TITLE "Alligator Farm"
PERFORMER "Paul Gilbert"
INDEX 01 08:31:47
TRACK 05 AUDIO
TITLE "Attitude Boy Will Overcome"
PERFORMER "Paul Gilbert"
INDEX 00 12:13:35
INDEX 01 12:14:30
TRACK 06 AUDIO
TITLE "2 Become 1"
PERFORMER "Paul Gilbert"
INDEX 01 16:17:40
TRACK 07 AUDIO
TITLE "Lancelot Link"
PERFORMER "Paul Gilbert"
INDEX 01 21:34:05
TRACK 08 AUDIO
TITLE "Rosalinda Told Me"
PERFORMER "Paul Gilbert"
INDEX 01 22:09:60
TRACK 09 AUDIO
TITLE "Let The Computer Decide"
PERFORMER "Paul Gilbert"
INDEX 01 26:07:17
TRACK 10 AUDIO
TITLE "Koto Girl"
PERFORMER "Paul Gilbert"
INDEX 01 30:06:15
TRACK 11 AUDIO
TITLE "Dreamed Victoria"
PERFORMER "Paul Gilbert"
INDEX 01 33:41:62
TRACK 12 AUDIO
TITLE "Six Billion People"
PERFORMER "Paul Gilbert"
INDEX 01 38:05:35
TRACK 13 AUDIO
TITLE "The Ballad Of The Last Lions"
PERFORMER "Paul Gilbert"
INDEX 01 39:44:17
TRACK 14 AUDIO
TITLE "Whole Lotta Sonata"
PERFORMER "Paul Gilbert"
INDEX 01 49:15:65
Состав

Paul Gilbert: lead vocals, loud guitar
Tony Spinner: guitar, vocals
Scotty Johnson: guitar, piano, organ
Mike Szuter: bass, vocals
Jeff Martin: drums, percussion, vocals
Jimi Kidd: guitar
2002. Paul Gilbert - Burning Organ {2002, Japan, Universal UICE-1023}
Страна-производитель диска: Japan
Год первого выпуска: 2002
Год настоящего издания: 2002
Издатель (лейбл): Universal
Номер по каталогу: UICE-1023
Format: HDCD, Album
Аудиокодек: FLAC (*.flac)
Тип рипа: image+.cue
Битрейт аудио: lossless
Продолжительность: 00:48:33
Источник (релизер): raritetno.com
Наличие сканов в содержимом раздачи: да
Треклист:
01. I Like Rock (02:09)
02. My Religion (03:20)
03. Bliss (05:10)
04. Suicide Lover (03:03)
05. Friday Night (Say Yeah) (02:42)
06. I Am Satan (05:21)
07. G.V.R.O. (01:01)
08. My Drum (04:23)
09. Amy Is Amazing (04:19)
10. Muscle Car (03:34)
11. I Feel Love (03:26)
12. Burning Organ (05:22)
13. Keep on Keepin' On (04:38)
Лог создания рипа
Exact Audio Copy V1.0 beta 2 from 29. April 2011
Отчёт EAC об извлечении, выполненном 7. августа 2012, 19:25
Paul Gilbert / Burning Organ
Дисковод: _NEC DV-5800C Adapter: 3 ID: 1
Режим чтения : Достоверность
Использование точного потока : Да
Отключение кэша аудио : Да
Использование указателей C2 : Нет
Коррекция смещения при чтении : 12
Способность читать области Lead-in и Lead-out : Нет
Заполнение пропущенных сэмплов тишиной : Да
Удаление блоков с тишиной в начале и конце : Нет
При вычислениях CRC использовались нулевые сэмплы : Нет
Интерфейс : Встроенный Win32-интерфейс для Win NT/2000
Выходной формат : Внутренние WAV-операции
Формат сэмплов : 44.100 Гц; 16 бит; стерео
TOC извлечённого CD
Трек | Старт | Длительность | Начальный сектор | Конечный сектор
---------------------------------------------------------------------
1 | 0:00.00 | 2:09.60 | 0 | 9734
2 | 2:09.60 | 3:20.30 | 9735 | 24764
3 | 5:30.15 | 5:10.40 | 24765 | 48054
4 | 10:40.55 | 3:03.52 | 48055 | 61831
5 | 13:44.32 | 2:42.23 | 61832 | 74004
6 | 16:26.55 | 5:21.22 | 74005 | 98101
7 | 21:48.02 | 1:01.15 | 98102 | 102691
8 | 22:49.17 | 4:23.05 | 102692 | 122421
9 | 27:12.22 | 4:19.48 | 122422 | 141894
10 | 31:31.70 | 3:34.17 | 141895 | 157961
11 | 35:06.12 | 3:26.13 | 157962 | 173424
12 | 38:32.25 | 5:22.60 | 173425 | 197634
13 | 43:55.10 | 4:38.37 | 197635 | 218521
Характеристики диапазона извлечения и сообщения об ошибках
Выбранный диапазон
Имя файла D:\Paul Gilbert - Burning Organ.wav
Пиковый уровень 100.0 %
Скорость извлечения 8.2 X
Качество диапазона 99.9 %
CRC копии D31BE64C
Копирование... OK
Ошибок не произошло
AccurateRip: сводка
Трек 1 точность не определена (достоверность 13) [AC9EA4E6], AccurateRip вернул [DF65D0F8] (AR v2)
Трек 2 точность не определена (достоверность 13) [9D348767], AccurateRip вернул [472727AC] (AR v2)
Трек 3 точность не определена (достоверность 13) [1851848E], AccurateRip вернул [1182372D] (AR v2)
Трек 4 точность не определена (достоверность 13) [FF0760A9], AccurateRip вернул [7ECF68A5] (AR v2)
Трек 5 точность не определена (достоверность 13) [3CCE76BA], AccurateRip вернул [E6D101C7] (AR v2)
Трек 6 точность не определена (достоверность 13) [7F05D282], AccurateRip вернул [7A319080] (AR v2)
Трек 7 точность не определена (достоверность 13) [7BB2C311], AccurateRip вернул [53D10681] (AR v2)
Трек 8 точность не определена (достоверность 13) [16A870D9], AccurateRip вернул [EEF3F02E] (AR v2)
Трек 9 точность не определена (достоверность 13) [7173E111], AccurateRip вернул [59CBFF1A] (AR v2)
Трек 10 точность не определена (достоверность 13) [5579BA09], AccurateRip вернул [367D163E] (AR v2)
Трек 11 точность не определена (достоверность 13) [97BD1900], AccurateRip вернул [874DB700] (AR v2)
Трек 12 точность не определена (достоверность 13) [107597FE], AccurateRip вернул [D2DBBBF8] (AR v2)
Трек 13 точность не определена (достоверность 11) [E4CD6A02], AccurateRip вернул [836E7443] (AR v2)
Ни один трек не прошёл проверки на точность
В вашей базе может быть иной вариант штамповки диска
Конец отчёта
Содержание индексной карты (.CUE)
REM GENRE Rock
REM DATE 2002
REM DISCID 9F0B610D
REM COMMENT "ExactAudioCopy v1.0b2"
PERFORMER "Paul Gilbert"
TITLE "Burning Organ"
FILE "Paul Gilbert - Burning Organ.wav" WAVE
TRACK 01 AUDIO
TITLE "I Like Rock"
PERFORMER "Paul Gilbert"
INDEX 01 00:00:00
TRACK 02 AUDIO
TITLE "My Religion"
PERFORMER "Paul Gilbert"
INDEX 01 02:09:60
TRACK 03 AUDIO
TITLE "Bliss"
PERFORMER "Paul Gilbert"
INDEX 01 05:30:15
TRACK 04 AUDIO
TITLE "Suicide Lover"
PERFORMER "Paul Gilbert"
INDEX 01 10:40:55
TRACK 05 AUDIO
TITLE "Friday Night (Say Yeah)"
PERFORMER "Paul Gilbert"
INDEX 01 13:44:32
TRACK 06 AUDIO
TITLE "I Am Satan"
PERFORMER "Paul Gilbert"
INDEX 01 16:26:55
TRACK 07 AUDIO
TITLE "G.V.R.O."
PERFORMER "Paul Gilbert"
INDEX 01 21:48:02
TRACK 08 AUDIO
TITLE "My Drum"
PERFORMER "Paul Gilbert"
INDEX 01 22:49:17
TRACK 09 AUDIO
TITLE "Amy Is amazing"
PERFORMER "Paul Gilbert"
INDEX 01 27:12:22
TRACK 10 AUDIO
TITLE "Muscle Car"
PERFORMER "Paul Gilbert"
INDEX 01 31:31:70
TRACK 11 AUDIO
TITLE "I Feel Love"
PERFORMER "Paul Gilbert"
INDEX 01 35:06:12
TRACK 12 AUDIO
TITLE "Burning Organ"
PERFORMER "Paul Gilbert"
INDEX 01 38:32:25
TRACK 13 AUDIO
TITLE "Keep on Keepin' On"
PERFORMER "Paul Gilbert"
INDEX 01 43:55:10
2003. Paul Gilbert - Acoustic Samurai {2003, Japan, Universal UICE-9009}
Страна-производитель диска: Japan
Год первого выпуска: 2003
Год настоящего издания: 2003
Издатель (лейбл): Universal
Номер по каталогу: UICE-9009
Format: HDCD, Album, Live, Limited Edition
Аудиокодек: FLAC (*.flac)
Тип рипа: tracks+.cue
Битрейт аудио: lossless
Продолжительность: 00:58:04
Источник (релизер): kinozal.tv
Наличие сканов в содержимом раздачи: да
Треклист:
01. Potato head (02:07)
02. Dancing Queen (03:31)
03. I like Rock (02:19)
04. Down to Mexico (04:58)
05. Suicide lover (03:40)
06. I am Satan (03:02)
07. Individually twisted (04:11)
08. Bliss (05:34)
09. Time to let you go (03:14)
10. I’m not afraid of the police (03:48)
11. Three times Rana (04:43)
12. The second loudest guitar in the world (02:05)
13. Scarified (03:42)
14. Heaven in ’74 (03:52)
15. Maybe I’ll die tomorrow (04:00)
16. Always for Alison (03:21)
Лог создания рипа
Exact Audio Copy V1.0 beta 4 from 7. December 2014
EAC extraction logfile from 1. August 2016, 1:25
Paul Gilbert / Acoustic Samurai
Used drive : Optiarc DVD RW AD-7240S Adapter: 1 ID: 1
Read mode : Secure
Utilize accurate stream : Yes
Defeat audio cache : Yes
Make use of C2 pointers : No
Read offset correction : 48
Overread into Lead-In and Lead-Out : No
Fill up missing offset samples with silence : Yes
Delete leading and trailing silent blocks : No
Null samples used in CRC calculations : Yes
Used interface : Native Win32 interface for Win NT & 2000
Gap handling : Appended to previous track
Used output format : User Defined Encoder
Selected bitrate : 768 kBit/s
Quality : High
Add ID3 tag : No
Command line compressor : C:\Program Files (x86)\Exact Audio Copy\Flac\flac.exe
Additional command line options : -8 -V -T "ARTIST=%artist%" -T "ALBUM=%albumtitle%" -T "DATE=%year%" -T "GENRE=%genre%" -T "COMMENT=EAC FLAC -8" %s
TOC of the extracted CD
Track | Start | Length | Start sector | End sector
---------------------------------------------------------
1 | 0:00.00 | 2:07.25 | 0 | 9549
2 | 2:07.25 | 3:30.45 | 9550 | 25344
3 | 5:37.70 | 2:19.12 | 25345 | 35781
4 | 7:57.07 | 4:57.70 | 35782 | 58126
5 | 12:55.02 | 3:39.65 | 58127 | 74616
6 | 16:34.67 | 3:02.08 | 74617 | 88274
7 | 19:37.00 | 4:10.50 | 88275 | 107074
8 | 23:47.50 | 5:33.60 | 107075 | 132109
9 | 29:21.35 | 3:14.22 | 132110 | 146681
10 | 32:35.57 | 3:48.20 | 146682 | 163801
11 | 36:24.02 | 4:42.55 | 163802 | 185006
12 | 41:06.57 | 2:04.38 | 185007 | 194344
13 | 43:11.20 | 3:41.40 | 194345 | 210959
14 | 46:52.60 | 3:51.57 | 210960 | 228341
15 | 50:44.42 | 3:59.48 | 228342 | 246314
16 | 54:44.15 | 3:20.47 | 246315 | 261361
Track 1
Filename C:\Users\Администратор\Desktop\Paul Gilbert - Acoustic Samurai\01 Patato Head.wav
Pre-gap length 0:00:02.00
Peak level 98.8 %
Extraction speed 2.2 X
Track quality 100.0 %
Test CRC 71D14EAF
Copy CRC 71D14EAF
Cannot be verified as accurate (confidence 7) [E3409C66], AccurateRip returned [F2CEE9A9] (AR v2)
Copy OK
Track 2
Filename C:\Users\Администратор\Desktop\Paul Gilbert - Acoustic Samurai\02 Dancing Queen.wav
Peak level 98.8 %
Extraction speed 2.6 X
Track quality 100.0 %
Test CRC 560BF0DF
Copy CRC 560BF0DF
Cannot be verified as accurate (confidence 7) [6940A363], AccurateRip returned [5307067A] (AR v2)
Copy OK
Track 3
Filename C:\Users\Администратор\Desktop\Paul Gilbert - Acoustic Samurai\03 I Like Rock.wav
Peak level 98.8 %
Extraction speed 2.5 X
Track quality 100.0 %
Test CRC ED9F3DE7
Copy CRC ED9F3DE7
Cannot be verified as accurate (confidence 7) [4B2B0F79], AccurateRip returned [1C0D54BB] (AR v2)
Copy OK
Track 4
Filename C:\Users\Администратор\Desktop\Paul Gilbert - Acoustic Samurai\04 Down To Mexico.wav
Peak level 98.8 %
Extraction speed 3.1 X
Track quality 100.0 %
Test CRC 3FC3B4AE
Copy CRC 3FC3B4AE
Cannot be verified as accurate (confidence 7) [92886A17], AccurateRip returned [43FD61CE] (AR v2)
Copy OK
Track 5
Filename C:\Users\Администратор\Desktop\Paul Gilbert - Acoustic Samurai\05 Suicide Lover.wav
Peak level 98.8 %
Extraction speed 3.1 X
Track quality 100.0 %
Test CRC 35B43081
Copy CRC 35B43081
Cannot be verified as accurate (confidence 7) [1AF56F61], AccurateRip returned [EDBF8210] (AR v2)
Copy OK
Track 6
Filename C:\Users\Администратор\Desktop\Paul Gilbert - Acoustic Samurai\06 I Am Satan.wav
Peak level 98.8 %
Extraction speed 3.2 X
Track quality 100.0 %
Test CRC 68C900B0
Copy CRC 68C900B0
Cannot be verified as accurate (confidence 7) [2B091A2F], AccurateRip returned [38EE25A8] (AR v2)
Copy OK
Track 7
Filename C:\Users\Администратор\Desktop\Paul Gilbert - Acoustic Samurai\07 Individually Twisted.wav
Peak level 98.8 %
Extraction speed 3.1 X
Track quality 99.9 %
Test CRC 94B7D815
Copy CRC 94B7D815
Cannot be verified as accurate (confidence 7) [F912221F], AccurateRip returned [4E5C99FC] (AR v2)
Copy OK
Track 8
Filename C:\Users\Администратор\Desktop\Paul Gilbert - Acoustic Samurai\08 Bliss.wav
Peak level 98.8 %
Extraction speed 3.8 X
Track quality 100.0 %
Test CRC 96A1539B
Copy CRC 96A1539B
Cannot be verified as accurate (confidence 7) [821FA280], AccurateRip returned [042A717E] (AR v2)
Copy OK
Track 9
Filename C:\Users\Администратор\Desktop\Paul Gilbert - Acoustic Samurai\09 Time To Let You Go.wav
Peak level 98.8 %
Extraction speed 3.7 X
Track quality 100.0 %
Test CRC 9DA8D81E
Copy CRC 9DA8D81E
Cannot be verified as accurate (confidence 6) [EC57D618], AccurateRip returned [EAD6F344] (AR v2)
Copy OK
Track 10
Filename C:\Users\Администратор\Desktop\Paul Gilbert - Acoustic Samurai\10 I'm Not Afraid Of The Police.wav
Peak level 98.8 %
Extraction speed 3.9 X
Track quality 100.0 %
Test CRC E02682C7
Copy CRC E02682C7
Cannot be verified as accurate (confidence 7) [0EB672A1], AccurateRip returned [CC81D936] (AR v2)
Copy OK
Track 11
Filename C:\Users\Администратор\Desktop\Paul Gilbert - Acoustic Samurai\11 Three TImes Rana.wav
Peak level 98.8 %
Extraction speed 4.2 X
Track quality 100.0 %
Test CRC CA256CE6
Copy CRC CA256CE6
Cannot be verified as accurate (confidence 7) [B0772E57], AccurateRip returned [0A8EE2DF] (AR v2)
Copy OK
Track 12
Filename C:\Users\Администратор\Desktop\Paul Gilbert - Acoustic Samurai\12 The Second Loudest Guitar In The World.wav
Peak level 98.8 %
Extraction speed 3.1 X
Track quality 99.9 %
Test CRC 04729467
Copy CRC 04729467
Cannot be verified as accurate (confidence 7) [BEF14FD1], AccurateRip returned [462D3E12] (AR v2)
Copy OK
Track 13
Filename C:\Users\Администратор\Desktop\Paul Gilbert - Acoustic Samurai\13 Scarified.wav
Peak level 98.8 %
Extraction speed 4.3 X
Track quality 100.0 %
Test CRC 4240679B
Copy CRC 4240679B
Cannot be verified as accurate (confidence 7) [68763D91], AccurateRip returned [5301F6A2] (AR v2)
Copy OK
Track 14
Filename C:\Users\Администратор\Desktop\Paul Gilbert - Acoustic Samurai\14 Heaven In '74.wav
Peak level 98.8 %
Extraction speed 3.9 X
Track quality 99.9 %
Test CRC D1872BB2
Copy CRC D1872BB2
Cannot be verified as accurate (confidence 7) [5C335E7F], AccurateRip returned [821EAE7F] (AR v2)
Copy OK
Track 15
Filename C:\Users\Администратор\Desktop\Paul Gilbert - Acoustic Samurai\15 Maybe I'll Die Tomorrow.wav
Pre-gap length 0:00:03.52
Peak level 98.8 %
Extraction speed 4.3 X
Track quality 100.0 %
Test CRC FE1AA300
Copy CRC FE1AA300
Cannot be verified as accurate (confidence 7) [EDE3735B], AccurateRip returned [C71F8A0B] (AR v2)
Copy OK
Track 16
Filename C:\Users\Администратор\Desktop\Paul Gilbert - Acoustic Samurai\16 Always For Alison.wav
Pre-gap length 0:00:03.00
Peak level 98.8 %
Extraction speed 4.6 X
Track quality 100.0 %
Test CRC E1239259
Copy CRC E1239259
Cannot be verified as accurate (confidence 7) [2B2D4070], AccurateRip returned [6EB58C48] (AR v2)
Copy OK
No tracks could be verified as accurate
You may have a different pressing from the one(s) in the database
No errors occurred
End of status report
---- CUETools DB Plugin V2.1.4
[CTDB TOCID: F68bs3WSwksadqwSdzAlr7WOajY-] found
Submit result: F68bs3WSwksadqwSdzAlr7WOajY- has been confirmed
Track | CTDB Status
1 | (16/19) Accurately ripped, or (3/19) differs in 30 samples @02:07:13
2 | (19/19) Accurately ripped
3 | (19/19) Accurately ripped
4 | (16/19) Accurately ripped, or (3/19) differs in 30 samples @04:57:69
5 | (16/19) Accurately ripped, or (3/19) differs in 60 samples @03:39:64
6 | (16/19) Accurately ripped, or (3/19) differs in 60 samples @03:02:07
7 | (16/19) Accurately ripped, or (3/19) differs in 60 samples @04:10:49
8 | (19/19) Accurately ripped
9 | (16/19) Accurately ripped, or (3/19) differs in 30 samples @03:14:21
10 | (16/19) Accurately ripped, or (3/19) differs in 60 samples @03:48:19
11 | (16/19) Accurately ripped, or (3/19) differs in 30 samples @04:42:54
12 | (16/19) Accurately ripped, or (3/19) differs in 60 samples @02:04:37
13 | (16/19) Accurately ripped, or (3/19) differs in 30 samples @03:41:39
14 | (19/19) Accurately ripped
15 | (19/19) Accurately ripped
16 | (19/19) Accurately ripped
==== Log checksum EDAF8B35A69CC99D7F87221AC2C41D0F4BDF3A73AD8A3290B905B9D016E98830 ====
Содержание индексной карты (.CUE)
REM GENRE Rock
REM DATE 2003
REM DISCID 0F0D9C10
REM COMMENT "ExactAudioCopy v1.0b4"
PERFORMER "Paul Gilbert"
TITLE "Acoustic Samurai"
FILE "01 Patato Head.wav" WAVE
TRACK 01 AUDIO
TITLE "Patato Head"
PERFORMER "Paul Gilbert"
INDEX 01 00:00:00
FILE "02 Dancing Queen.wav" WAVE
TRACK 02 AUDIO
TITLE "Dancing Queen"
PERFORMER "Paul Gilbert"
INDEX 01 00:00:00
FILE "03 I Like Rock.wav" WAVE
TRACK 03 AUDIO
TITLE "I Like Rock"
PERFORMER "Paul Gilbert"
INDEX 01 00:00:00
FILE "04 Down To Mexico.wav" WAVE
TRACK 04 AUDIO
TITLE "Down To Mexico"
PERFORMER "Paul Gilbert"
INDEX 01 00:00:00
FILE "05 Suicide Lover.wav" WAVE
TRACK 05 AUDIO
TITLE "Suicide Lover"
PERFORMER "Paul Gilbert"
INDEX 01 00:00:00
FILE "06 I Am Satan.wav" WAVE
TRACK 06 AUDIO
TITLE "I Am Satan"
PERFORMER "Paul Gilbert"
INDEX 01 00:00:00
FILE "07 Individually Twisted.wav" WAVE
TRACK 07 AUDIO
TITLE "Individually Twisted"
PERFORMER "Paul Gilbert"
INDEX 01 00:00:00
FILE "08 Bliss.wav" WAVE
TRACK 08 AUDIO
TITLE "Bliss"
PERFORMER "Paul Gilbert"
INDEX 01 00:00:00
FILE "09 Time To Let You Go.wav" WAVE
TRACK 09 AUDIO
TITLE "Time To Let You Go"
PERFORMER "Paul Gilbert"
INDEX 01 00:00:00
FILE "10 I'm Not Afraid Of The Police.wav" WAVE
TRACK 10 AUDIO
TITLE "I'm Not Afraid Of The Police"
PERFORMER "Paul Gilbert"
INDEX 01 00:00:00
FILE "11 Three TImes Rana.wav" WAVE
TRACK 11 AUDIO
TITLE "Three TImes Rana"
PERFORMER "Paul Gilbert"
INDEX 01 00:00:00
FILE "12 The Second Loudest Guitar In The World.wav" WAVE
TRACK 12 AUDIO
TITLE "The Second Loudest Guitar In The World"
PERFORMER "Paul Gilbert"
INDEX 01 00:00:00
FILE "13 Scarified.wav" WAVE
TRACK 13 AUDIO
TITLE "Scarified"
PERFORMER "Paul Gilbert"
INDEX 01 00:00:00
FILE "14 Heaven In '74.wav" WAVE
TRACK 14 AUDIO
TITLE "Heaven In '74"
PERFORMER "Paul Gilbert"
INDEX 01 00:00:00
TRACK 15 AUDIO
TITLE "Maybe I'll Die Tomorrow"
PERFORMER "Paul Gilbert"
INDEX 00 03:48:05
FILE "15 Maybe I'll Die Tomorrow.wav" WAVE
INDEX 01 00:00:00
TRACK 16 AUDIO
TITLE "Always For Alison"
PERFORMER "Paul Gilbert"
INDEX 00 03:56:48
FILE "16 Always For Alison.wav" WAVE
INDEX 01 00:00:00
Лог проверки качества
AUDIOCHECKER v2.0 beta (build 457) - by Dester - opdester@freemail.hu
~~~~~~~~~~~~~~~~~~~~~~~~~~~~~~~~~~
-=== DO NOT EDIT THIS FILE! ===-
Path: ...\Paul Gilbert - Acoustic Samurai 2003
01 -=- 01 Patato Head.flac -=- CDDA (100%)
02 -=- 02 Dancing Queen.flac -=- CDDA (100%)
03 -=- 03 I Like Rock.flac -=- CDDA (100%)
04 -=- 04 Down To Mexico.flac -=- CDDA (100%)
05 -=- 05 Suicide Lover.flac -=- CDDA (100%)
06 -=- 06 I Am Satan.flac -=- CDDA (100%)
07 -=- 07 Individually Twisted.flac -=- CDDA (100%)
08 -=- 08 Bliss.flac -=- CDDA (100%)
09 -=- 09 Time To Let You Go.flac -=- CDDA (100%)
10 -=- 10 I'm Not Afraid Of The Police.flac -=- CDDA (100%)
11 -=- 11 Three TImes Rana.flac -=- CDDA (100%)
12 -=- 12 The Second Loudest Guitar In The World.flac -=- CDDA (100%)
13 -=- 13 Scarified.flac -=- CDDA (100%)
14 -=- 14 Heaven In '74.flac -=- CDDA (100%)
15 -=- 15 Maybe I'll Die Tomorrow.flac -=- CDDA (100%)
16 -=- 16 Always For Alison.flac -=- CDDA (99%)
Summary 99,94% CDDA
2003. Paul Gilbert - Gilbert Hotel {2003, Taiwan, Rock Empire Music MMVT 1007}
Страна-производитель диска: Taiwan
Год первого выпуска: 2003
Год настоящего издания: 2003
Издатель (лейбл): Rock Empire Music
Номер по каталогу: MMVT 1007
Format: HDCD, Album
Аудиокодек: FLAC (*.flac)
Тип рипа: tracks+.cue
Битрейт аудио: lossless
Продолжительность: 00:29:14
Источник (релизер): darksage.ru
Наличие сканов в содержимом раздачи: немного
Треклист:
01. Three Times Rana (03:36)
02. Black Rain Cloud (03:56)
03. Escalator Music (Instrumental) (01:26)
04. Lay Off the Morphine (02:54)
05. N.F.R.O. (Instrumental) (00:56)
(J. S. Bach)
06. Older Guy (02:49)
07. The Lamb Lies Down On Broadway (04:56)
(Peter Gabriel/Steve Hackett/Tony Banks/Mike Rutherford/Phil Collins)
08. Time to Let You Go (03:17)
(Donnie Vie)
09. W.T.R.O. (Instrumental) (02:56)
(J. S. Bach)
10. Universal (02:24)
Лог создания рипа
Exact Audio Copy V0.99 prebeta 4 from 23. January 2008
EAC extraction logfile from 5. October 2008, 9:13
Paul Gilbert / Gilbert Hotel
Used drive : TEAC CD-W540E Adapter: 4 ID: 0
Read mode : Secure
Utilize accurate stream : Yes
Defeat audio cache : Yes
Make use of C2 pointers : No
Read offset correction : 686
Overread into Lead-In and Lead-Out : No
Fill up missing offset samples with silence : Yes
Delete leading and trailing silent blocks : No
Null samples used in CRC calculations : Yes
Used interface : Native Win32 interface for Win NT & 2000
Gap handling : Appended to previous track
Used output format : User Defined Encoder
Selected bitrate : 1024 kBit/s
Quality : High
Add ID3 tag : No
Command line compressor : C:\Program Files (x86)\Exact Audio Copy\Flac\flac.exe
Additional command line options : -8 -V -T "ARTIST=%a" -T "TITLE=%t" -T "ALBUM=%g" -T "DATE=%y" -T "TRACKNUMBER=%n" -T "GENRE=%m" -T "COMMENT=EAC FLAC -8" %s
TOC of the extracted CD
Track | Start | Length | Start sector | End sector
---------------------------------------------------------
1 | 0:00.00 | 3:36.27 | 0 | 16226
2 | 3:36.27 | 3:56.00 | 16227 | 33926
3 | 7:32.27 | 1:26.00 | 33927 | 40376
4 | 8:58.27 | 2:54.55 | 40377 | 53481
5 | 11:53.07 | 0:56.68 | 53482 | 57749
6 | 12:50.00 | 2:49.50 | 57750 | 70474
7 | 15:39.50 | 4:56.42 | 70475 | 92716
8 | 20:36.17 | 3:17.30 | 92717 | 107521
9 | 23:53.47 | 2:56.70 | 107522 | 120791
10 | 26:50.42 | 2:24.23 | 120792 | 131614
Track 1
Filename I:\upload for btmusic\Paul Gilbert - Gilbert Hotel (2003) [FLAC]\01 - Three Times Rana.wav
Pre-gap length 0:00:02.00
Peak level 96.5 %
Track quality 100.0 %
Test CRC 22AEDCAB
Copy CRC 22AEDCAB
Cannot be verified as accurate (confidence 2) [86C5361B], AccurateRip returned [5F5C721B]
Copy OK
Track 2
Filename I:\upload for btmusic\Paul Gilbert - Gilbert Hotel (2003) [FLAC]\02 - Black Rain Cloud.wav
Peak level 96.5 %
Track quality 100.0 %
Test CRC 4E1A212E
Copy CRC 4E1A212E
Cannot be verified as accurate (confidence 2) [5D815714], AccurateRip returned [0C5DD0E4]
Copy OK
Track 3
Filename I:\upload for btmusic\Paul Gilbert - Gilbert Hotel (2003) [FLAC]\03 - Escalator Music.wav
Peak level 66.7 %
Track quality 99.8 %
Test CRC 90E45FAC
Copy CRC 90E45FAC
Cannot be verified as accurate (confidence 2) [5710498F], AccurateRip returned [C93EB5F9]
Copy OK
Track 4
Filename I:\upload for btmusic\Paul Gilbert - Gilbert Hotel (2003) [FLAC]\04 - Lay Off The Morphine.wav
Peak level 96.5 %
Track quality 100.0 %
Test CRC B3920798
Copy CRC B3920798
Cannot be verified as accurate (confidence 2) [AAD0D8D8], AccurateRip returned [FB0C27FF]
Copy OK
Track 5
Filename I:\upload for btmusic\Paul Gilbert - Gilbert Hotel (2003) [FLAC]\05 - N.F.R.O..wav
Peak level 92.4 %
Track quality 100.0 %
Test CRC 4EF8881E
Copy CRC 4EF8881E
Cannot be verified as accurate (confidence 2) [8B524013], AccurateRip returned [A942F519]
Copy OK
Track 6
Filename I:\upload for btmusic\Paul Gilbert - Gilbert Hotel (2003) [FLAC]\06 - Older Guy.wav
Peak level 96.6 %
Track quality 99.9 %
Test CRC 76F4A2F6
Copy CRC 76F4A2F6
Cannot be verified as accurate (confidence 2) [5003A865], AccurateRip returned [E1166BC6]
Copy OK
Track 7
Filename I:\upload for btmusic\Paul Gilbert - Gilbert Hotel (2003) [FLAC]\07 - The Lamb Lies Down On Broadway.wav
Peak level 96.5 %
Track quality 100.0 %
Test CRC DD3FB882
Copy CRC DD3FB882
Cannot be verified as accurate (confidence 2) [CE496914], AccurateRip returned [8F4D50CA]
Copy OK
Track 8
Filename I:\upload for btmusic\Paul Gilbert - Gilbert Hotel (2003) [FLAC]\08 - Time To Let You Go.wav
Peak level 96.5 %
Track quality 100.0 %
Test CRC 05674C7A
Copy CRC 05674C7A
Cannot be verified as accurate (confidence 2) [0651FA66], AccurateRip returned [E11D5821]
Copy OK
Track 9
Filename I:\upload for btmusic\Paul Gilbert - Gilbert Hotel (2003) [FLAC]\09 - W.T.R.O..wav
Peak level 96.5 %
Track quality 100.0 %
Test CRC FD487108
Copy CRC FD487108
Cannot be verified as accurate (confidence 2) [90BAB53E], AccurateRip returned [470525E1]
Copy OK
Track 10
Filename I:\upload for btmusic\Paul Gilbert - Gilbert Hotel (2003) [FLAC]\10 - Universal.wav
Peak level 96.5 %
Track quality 100.0 %
Test CRC AA24917F
Copy CRC AA24917F
Cannot be verified as accurate (confidence 2) [EFDEBA22], AccurateRip returned [48CF7866]
Copy OK
No tracks could be verified as accurate
You may have a different pressing from the one(s) in the database
No errors occurred
End of status report
Содержание индексной карты (.CUE)
REM GENRE "Hard Rock"
REM DATE 2003
REM DISCID 7306DA0A
REM COMMENT "ExactAudioCopy v0.99pb4"
PERFORMER "Paul Gilbert"
TITLE "Gilbert Hotel"
FILE "01 - Three Times Rana.wav" WAVE
TRACK 01 AUDIO
TITLE "Three Times Rana"
PERFORMER "Paul Gilbert"
INDEX 01 00:00:00
FILE "02 - Black Rain Cloud.wav" WAVE
TRACK 02 AUDIO
TITLE "Black Rain Cloud"
PERFORMER "Paul Gilbert"
INDEX 01 00:00:00
FILE "03 - Escalator Music.wav" WAVE
TRACK 03 AUDIO
TITLE "Escalator Music"
PERFORMER "Paul Gilbert"
INDEX 01 00:00:00
FILE "04 - Lay Off The Morphine.wav" WAVE
TRACK 04 AUDIO
TITLE "Lay Off The Morphine"
PERFORMER "Paul Gilbert"
INDEX 01 00:00:00
FILE "05 - N.F.R.O..wav" WAVE
TRACK 05 AUDIO
TITLE "N.F.R.O."
PERFORMER "Paul Gilbert"
INDEX 01 00:00:00
FILE "06 - Older Guy.wav" WAVE
TRACK 06 AUDIO
TITLE "Older Guy"
PERFORMER "Paul Gilbert"
INDEX 01 00:00:00
FILE "07 - The Lamb Lies Down On Broadway.wav" WAVE
TRACK 07 AUDIO
TITLE "The Lamb Lies Down On Broadway"
PERFORMER "Paul Gilbert"
INDEX 01 00:00:00
FILE "08 - Time To Let You Go.wav" WAVE
TRACK 08 AUDIO
TITLE "Time To Let You Go"
PERFORMER "Paul Gilbert"
INDEX 01 00:00:00
FILE "09 - W.T.R.O..wav" WAVE
TRACK 09 AUDIO
TITLE "W.T.R.O."
PERFORMER "Paul Gilbert"
INDEX 01 00:00:00
FILE "10 - Universal.wav" WAVE
TRACK 10 AUDIO
TITLE "Universal"
PERFORMER "Paul Gilbert"
INDEX 01 00:00:00
Лог проверки качества
AUDIOCHECKER v2.0 beta (build 457) - by Dester - opdester@freemail.hu
~~~~~~~~~~~~~~~~~~~~~~~~~~~~~~~~~~
-=== DO NOT EDIT THIS FILE! ===-
Path: ...\2003. Paul Gilbert - Gilbert Hotel {2003, Taiwan, Rock Empire Music MMVT 1007}
01 -=- 01 - Three Times Rana.flac -=- CDDA (100%)
02 -=- 02 - Black Rain Cloud.flac -=- CDDA (100%)
03 -=- 03 - Escalator Music.flac -=- CDDA (100%)
04 -=- 04 - Lay Off The Morphine.flac -=- CDDA (100%)
05 -=- 05 - N.F.R.O..flac -=- CDDA (100%)
06 -=- 06 - Older Guy.flac -=- CDDA (100%)
07 -=- 07 - The Lamb Lies Down On Broadway.flac -=- CDDA (100%)
08 -=- 08 - Time To Let You Go.flac -=- CDDA (100%)
09 -=- 09 - W.T.R.O..flac -=- CDDA (100%)
10 -=- 10 - Universal.flac -=- CDDA (100%)
Summary 100,00% CDDA
Состав

Paul Gilbert: vocals, guitars, bass guitar, bongos, brushes and other things
Scott Coogan: drums (Track 1), percussion and vocals (Track 8)
Linus of Hollywood: guitars and vocals (Track 8)
2005. Paul Gilbert - Space Ship One {2005, Russia, Irond CD 05-DD290}
Страна-производитель диска: Russia
Год первого выпуска: 2005
Год настоящего издания: 2005
Издатель (лейбл): Irond
Номер по каталогу: CD 05-DD290
Format: HDCD, Album
Аудиокодек: FLAC (*.flac)
Тип рипа: image+.cue
Битрейт аудио: lossless
Продолжительность: 00:56:45
Источник (релизер): ed2k
Наличие сканов в содержимом раздачи: да
Треклист:
01. Space ship one (05:59)
02. Every hot girl is a Rockstar (03:05)
03. On the way to Hell (02:53)
04. SVT (04:03)
05. Jackhammer (05:07)
06. Terrible man (03:22)
07. Interaction (04:19)
08. G9 (02:17)
09. Mr. Spock (04:53)
10. Boku no atama (02:30)
11. Good man (03:58)
12. Wash my car (04:15)
13. It’s all too much (06:48)
14. We all dream of love (03:16)
Лог создания рипа
Exact Audio Copy V1.0 beta 3 from 29. August 2011
EAC extraction logfile from 17. August 2014, 21:53
Paul Gilbert / Space Ship One (IrondCD05-DD290)
Used drive : MATSHITABD-CMB UJ242AS Adapter: 0 ID: 1
Read mode : Secure
Utilize accurate stream : Yes
Defeat audio cache : Yes
Make use of C2 pointers : No
Read offset correction : 103
Overread into Lead-In and Lead-Out : No
Fill up missing offset samples with silence : Yes
Delete leading and trailing silent blocks : No
Null samples used in CRC calculations : Yes
Used interface : Installed external ASPI interface
Used output format : User Defined Encoder
Selected bitrate : 1024 kBit/s
Quality : High
Add ID3 tag : Yes
Command line compressor : C:\Program Files (x86)\Exact Audio Copy\Flac\flac.exe
Additional command line options : -V -8 -T "Date=%year%" -T "Genre=%genre%" %source%
TOC of the extracted CD
Track | Start | Length | Start sector | End sector
---------------------------------------------------------
1 | 0:00.00 | 5:58.48 | 0 | 26897
2 | 5:58.48 | 3:05.37 | 26898 | 40809
3 | 9:04.10 | 2:52.67 | 40810 | 53776
4 | 11:57.02 | 4:03.04 | 53777 | 72005
5 | 16:00.06 | 5:07.22 | 72006 | 95052
6 | 21:07.28 | 3:21.44 | 95053 | 110171
7 | 24:28.72 | 4:19.32 | 110172 | 129628
8 | 28:48.29 | 2:16.57 | 129629 | 139885
9 | 31:05.11 | 4:52.40 | 139886 | 161825
10 | 35:57.51 | 2:30.21 | 161826 | 173096
11 | 38:27.72 | 3:58.24 | 173097 | 190970
12 | 42:26.21 | 4:14.54 | 190971 | 210074
13 | 46:41.00 | 6:48.23 | 210075 | 240697
14 | 53:29.23 | 3:15.69 | 240698 | 255391
Range status and errors
Selected range
Filename C:\EACrip\Paul Gilbert - Space Ship One (IrondCD05-DD290).wav
Peak level 98.8 %
Extraction speed 4.3 X
Range quality 100.0 %
Test CRC D0A24BD2
Copy CRC D0A24BD2
Copy OK
No errors occurred
AccurateRip summary
Track 1 cannot be verified as accurate (confidence 7) [DB84672C], AccurateRip returned [A055DAFA] (AR v2)
Track 2 cannot be verified as accurate (confidence 7) [098DDD52], AccurateRip returned [D8E57C9D] (AR v2)
Track 3 cannot be verified as accurate (confidence 7) [CB8A5922], AccurateRip returned [439BFE1E] (AR v2)
Track 4 cannot be verified as accurate (confidence 7) [8669C82C], AccurateRip returned [53B37A6C] (AR v2)
Track 5 cannot be verified as accurate (confidence 10) [CB30FB1B], AccurateRip returned [B2227664] (AR v2)
Track 6 cannot be verified as accurate (confidence 10) [6F1B040C], AccurateRip returned [3479FF10] (AR v2)
Track 7 cannot be verified as accurate (confidence 10) [08BB24F3], AccurateRip returned [2A6AB755] (AR v2)
Track 8 cannot be verified as accurate (confidence 10) [8E483B6C], AccurateRip returned [92430639] (AR v2)
Track 9 cannot be verified as accurate (confidence 10) [5652743B], AccurateRip returned [EF568DAD] (AR v2)
Track 10 cannot be verified as accurate (confidence 10) [04CAAE0B], AccurateRip returned [A9D45777] (AR v2)
Track 11 cannot be verified as accurate (confidence 10) [9C45B771], AccurateRip returned [A6950336] (AR v2)
Track 12 cannot be verified as accurate (confidence 10) [A2F100EA], AccurateRip returned [47870C3D] (AR v2)
Track 13 cannot be verified as accurate (confidence 10) [160098D1], AccurateRip returned [164E8F6F] (AR v2)
Track 14 cannot be verified as accurate (confidence 7) [C0A6472A], AccurateRip returned [D07DA6FA] (AR v2)
No tracks could be verified as accurate
You may have a different pressing from the one(s) in the database
End of status report
==== Log checksum 64F4A40DB9B07EC46BAEE39D65B99917DEE3F6C4DCB5E3CA7CC7AC60729AB60E ====
Содержание индексной карты (.CUE)
REM GENRE Rock
REM DATE 2005
REM DISCID C10D4D0E
REM COMMENT "ExactAudioCopy v1.0b3"
PERFORMER "Paul Gilbert"
TITLE "Space Ship One (IrondCD05-DD290)"
FILE "Paul Gilbert - Space Ship One (IrondCD05-DD290).flac" WAVE
TRACK 01 AUDIO
TITLE "Space Ship One"
PERFORMER "Paul Gilbert"
INDEX 01 00:00:00
TRACK 02 AUDIO
TITLE "Every Hot Girl is a Rockstar"
PERFORMER "Paul Gilbert"
INDEX 01 05:58:48
TRACK 03 AUDIO
TITLE "On the Way to Hell"
PERFORMER "Paul Gilbert"
INDEX 01 09:04:10
TRACK 04 AUDIO
TITLE "SVT"
PERFORMER "Paul Gilbert"
INDEX 01 11:57:02
TRACK 05 AUDIO
TITLE "Jackhammer"
PERFORMER "Paul Gilbert"
INDEX 01 16:00:06
TRACK 06 AUDIO
TITLE "Terrible Man"
PERFORMER "Paul Gilbert"
INDEX 01 21:07:28
TRACK 07 AUDIO
TITLE "Interaction"
PERFORMER "Paul Gilbert"
INDEX 01 24:28:72
TRACK 08 AUDIO
TITLE "G9"
PERFORMER "Paul Gilbert"
INDEX 01 28:48:29
TRACK 09 AUDIO
TITLE "Mr. Spock"
PERFORMER "Paul Gilbert"
INDEX 01 31:05:11
TRACK 10 AUDIO
TITLE "Boku No Atama"
PERFORMER "Paul Gilbert"
INDEX 01 35:57:51
TRACK 11 AUDIO
TITLE "Good Man"
PERFORMER "Paul Gilbert"
INDEX 01 38:27:72
TRACK 12 AUDIO
TITLE "Wash My Car"
PERFORMER "Paul Gilbert"
INDEX 01 42:26:21
TRACK 13 AUDIO
TITLE "It's All Too Much"
PERFORMER "Paul Gilbert"
INDEX 01 46:41:00
TRACK 14 AUDIO
TITLE "We All Dream of Love"
PERFORMER "Paul Gilbert"
INDEX 01 53:29:23
Состав

Paul Gilbert: guitar, vocals
Linus of Hollywood: bass guitar
Marco Minnemann: drums
2006. Paul Gilbert - Get Out Of My Yard {2006, Japan, WHD Entertainment IECP-10061}
Страна-производитель диска: Japan
Год первого выпуска: 2006
Год настоящего издания: 2006
Издатель (лейбл): WHD Entertainment Inc.
Номер по каталогу: IECP-10061
Format: HDCD, Album
Аудиокодек: FLAC (*.flac)
Тип рипа: image+.cue
Битрейт аудио: lossless
Продолжительность: 00:59:37
Источник (релизер): MeTaLMaDNeSS.TeaM
Наличие сканов в содержимом раздачи: да
Треклист:
01. Get Out of My Yard (01:38)
02. Hurry Up (05:11)
03. The Curse of Castle Dragon (03:51)
04. Radiator (04:51)
05. Straight Through the Telephone Pole (04:01)
06. Marine Layer (02:57)
07. Twelve Twelve (04:03)
08. Rusty Old Boat (04:04)
09. The Echo Song (05:08)
10. Full Tank (05:19)
11. My Teeth Are a Drum Set (03:38)
12. Haydn Symphony No.88 Finale (03:37)
13. Three E's for Edward (02:19)
14. You Kids (03:30)
15. Hurry Up (Studio Live Version) (05:23)
Лог создания рипа
EAC extraction logfile from 25. September 2006, 20:29 for CD
Paul Gilbert / Get Out Of My Yard
Used drive : HL-DT-STDVDRAM GSA-4082B Adapter: 1 ID: 0
Read mode : Secure with NO C2, accurate stream, disable cache
Read offset correction : 667
Overread into Lead-In and Lead-Out : No
Used output format : C:\Documents and Settings\j\Mis documentos\EAC\MAC.EXE (Monkey's Audio Lossless Encoder)
High Lossless Compression
Other options :
Fill up missing offset samples with silence : Yes
Delete leading and trailing silent blocks : No
Native Win32 interface for Win NT & 2000
Range status and errors
Selected range
Filename C:\Documents and Settings\j\Mis documentos\PAUL GILBERT [2006] [CD]Get out of my yard(japan edition) [EAC - APE] by jjcale [MeTaLMaDNeSS.TeaM]\CDImage.wav
Peak level 98.8 %
Range quality 100.0 %
CRC 0C499DDC
Copy OK
No errors occured
End of status report
Содержание индексной карты (.CUE)
PERFORMER "Paul Gilbert"
TITLE "Get Out Of My Yard"
FILE "Paul Gilbert - Get Out Of My Yard.ape" WAVE
TRACK 01 AUDIO
TITLE "Get Out Of My Yard"
PERFORMER "Paul Gilbert"
INDEX 01 00:00:00
TRACK 02 AUDIO
TITLE "Hurry Up"
PERFORMER "Paul Gilbert"
INDEX 01 01:38:30
TRACK 03 AUDIO
TITLE "The Curse Of Castle Dragon"
PERFORMER "Paul Gilbert"
INDEX 01 06:50:01
TRACK 04 AUDIO
TITLE "Radiator"
PERFORMER "Paul Gilbert"
INDEX 01 10:41:38
TRACK 05 AUDIO
TITLE "Straight Through The Telephone Pole"
PERFORMER "Paul Gilbert"
INDEX 00 15:31:61
INDEX 01 15:33:27
TRACK 06 AUDIO
TITLE "Marine Layer"
PERFORMER "Paul Gilbert"
INDEX 01 19:34:39
TRACK 07 AUDIO
TITLE "Twelve Twelve"
PERFORMER "Paul Gilbert"
INDEX 00 22:30:57
INDEX 01 22:31:66
TRACK 08 AUDIO
TITLE "Rusty Old Boat"
PERFORMER "Paul Gilbert"
INDEX 01 26:35:47
TRACK 09 AUDIO
TITLE "The Echo Song"
PERFORMER "Paul Gilbert"
INDEX 00 30:37:32
INDEX 01 30:40:01
TRACK 10 AUDIO
TITLE "Full Tank"
PERFORMER "Paul Gilbert"
INDEX 00 35:46:59
INDEX 01 35:48:02
TRACK 11 AUDIO
TITLE "My Teeth Are A Drum Set"
PERFORMER "Paul Gilbert"
INDEX 01 41:07:47
TRACK 12 AUDIO
TITLE "Hydon Symphony No. 88 Finale"
PERFORMER "Paul Gilbert"
INDEX 00 44:44:44
INDEX 01 44:46:07
TRACK 13 AUDIO
TITLE "Three E's For Edward"
PERFORMER "Paul Gilbert"
INDEX 01 48:23:64
TRACK 14 AUDIO
TITLE "You Kids"
PERFORMER "Paul Gilbert"
INDEX 00 50:42:01
INDEX 01 50:43:53
TRACK 15 AUDIO
TITLE "Hurry Up (Studio Live Version)"
PERFORMER "Paul Gilbert"
INDEX 00 54:10:70
INDEX 01 54:14:16
Состав

Paul Gilbert: electric & acoustic guitars, bass, vocals
Mike Szuter: bass on tracks 8, 10 and 11
Jeff Bowders: drums
Emi Gilbert: piano on track 6, Hammond organ on track 8, and classical consultation on track 12
2008. Paul Gilbert - Silence Followed by a Deafening Roar {2008, Russia, Irond CD 08-DD648}
Страна-производитель диска: Russia
Год первого выпуска: 2008
Год настоящего издания: 2008
Издатель (лейбл): Irond
Номер по каталогу: CD 08-DD648
Format: CD, Album
Аудиокодек: FLAC (*.flac)
Тип рипа: image+.cue
Битрейт аудио: lossless
Продолжительность: 00:42:24
Источник (релизер): ed2k
Наличие сканов в содержимом раздачи: да
Треклист:
01. Silence followed by a deafening roar (03:48)
02. Eudaimonia overture (04:36)
03. The rhino (02:47)
04. Norwegian cowbell (04:06)
05. I cannot tell a lie (03:50)
06. Bronx 1971 (04:05)
07. Suite modale (02:38)
08. The gargoyle (04:35)
09. I still have that other girl (02:52)
10. Bultaco Saturno (04:13)
11. Paul vs. Godzilla (04:52)
Лог создания рипа
Exact Audio Copy V1.0 beta 3 from 29. August 2011
EAC extraction logfile from 17. August 2014, 21:54
Paul Gilbert / Silence Followed by a Deafening Roar (IrondCD08-DD648)
Used drive : PLEXTOR DVDR PX-860A Adapter: 4 ID: 0
Read mode : Secure
Utilize accurate stream : Yes
Defeat audio cache : Yes
Make use of C2 pointers : No
Read offset correction : 96
Overread into Lead-In and Lead-Out : No
Fill up missing offset samples with silence : Yes
Delete leading and trailing silent blocks : No
Null samples used in CRC calculations : Yes
Used interface : Installed external ASPI interface
Used output format : User Defined Encoder
Selected bitrate : 128 kBit/s
Quality : High
Add ID3 tag : Yes
Command line compressor : G:\Program Files (x86)\Exact Audio Copy\Flac\flac.exe
Additional command line options : -V -8 -T "Date=%year%" -T "Genre=%genre%" %source%
TOC of the extracted CD
Track | Start | Length | Start sector | End sector
---------------------------------------------------------
1 | 0:00.00 | 3:48.28 | 0 | 17127
2 | 3:48.28 | 4:35.72 | 17128 | 37824
3 | 8:24.25 | 2:46.47 | 37825 | 50321
4 | 11:10.72 | 4:06.13 | 50322 | 68784
5 | 15:17.10 | 3:50.32 | 68785 | 86066
6 | 19:07.42 | 4:04.46 | 86067 | 104412
7 | 23:12.13 | 2:38.35 | 104413 | 116297
8 | 25:50.48 | 4:35.23 | 116298 | 136945
9 | 30:25.71 | 2:52.37 | 136946 | 149882
10 | 33:18.33 | 4:13.24 | 149883 | 168881
11 | 37:31.57 | 4:52.25 | 168882 | 190806
Range status and errors
Selected range
Filename D:\MUSIC\Paul Gilbert - Silence Followed by a Deafening Roar (IrondCD08-DD648).wav
Peak level 100.0 %
Extraction speed 7.0 X
Range quality 99.9 %
Test CRC 8E4D778C
Copy CRC 8E4D778C
Copy OK
No errors occurred
AccurateRip summary
Track 1 cannot be verified as accurate (confidence 12) [1338D543], AccurateRip returned [089111A4] (AR v2)
Track 2 cannot be verified as accurate (confidence 12) [DC4F5D19], AccurateRip returned [90E0DA2E] (AR v2)
Track 3 cannot be verified as accurate (confidence 12) [8F68DF30], AccurateRip returned [A0F5D3B3] (AR v2)
Track 4 cannot be verified as accurate (confidence 12) [DD7CBF90], AccurateRip returned [A50D1B5C] (AR v2)
Track 5 cannot be verified as accurate (confidence 12) [CAE82027], AccurateRip returned [BECF2527] (AR v2)
Track 6 cannot be verified as accurate (confidence 12) [C61A1BE5], AccurateRip returned [2C36AF52] (AR v2)
Track 7 cannot be verified as accurate (confidence 12) [37A5F7A6], AccurateRip returned [07A46029] (AR v2)
Track 8 cannot be verified as accurate (confidence 12) [1931F393], AccurateRip returned [859A4DD2] (AR v2)
Track 9 cannot be verified as accurate (confidence 12) [299C5159], AccurateRip returned [E027F9CA] (AR v2)
Track 10 cannot be verified as accurate (confidence 12) [D9BE5538], AccurateRip returned [B7A2B634] (AR v2)
Track 11 cannot be verified as accurate (confidence 12) [2400B8E9], AccurateRip returned [41ACC1DC] (AR v2)
No tracks could be verified as accurate
You may have a different pressing from the one(s) in the database
End of status report
==== Log checksum D368595E08F87B5D3EC7B989F96D0CAC027CD9A776CC3145F84859721B089CBD ====
Содержание индексной карты (.CUE)
REM GENRE Rock
REM DATE 2008
REM DISCID 8109F00B
REM COMMENT "ExactAudioCopy v1.0b3"
PERFORMER "Paul Gilbert"
TITLE "Silence Followed by a Deafening Roar (IrondCD08-DD648)"
FILE "Paul Gilbert - Silence Followed by a Deafening Roar (IrondCD08-DD648).flac" WAVE
TRACK 01 AUDIO
TITLE "Silence Followed by a Deafening Roar"
PERFORMER "Paul Gilbert"
INDEX 01 00:00:00
TRACK 02 AUDIO
TITLE "Eudaimonia Overture"
PERFORMER "Paul Gilbert"
INDEX 00 03:47:51
INDEX 01 03:48:28
TRACK 03 AUDIO
TITLE "The Rhino"
PERFORMER "Paul Gilbert"
INDEX 00 08:22:72
INDEX 01 08:24:25
TRACK 04 AUDIO
TITLE "Norwegian Cowbell"
PERFORMER "Paul Gilbert"
INDEX 00 11:10:13
INDEX 01 11:10:72
TRACK 05 AUDIO
TITLE "I Cannot Tell a Lie"
PERFORMER "Paul Gilbert"
INDEX 00 15:15:05
INDEX 01 15:17:10
TRACK 06 AUDIO
TITLE "Bronx 1971"
PERFORMER "Paul Gilbert"
INDEX 00 19:06:53
INDEX 01 19:07:42
TRACK 07 AUDIO
TITLE "Suite Modale"
PERFORMER "Paul Gilbert"
INDEX 00 23:10:37
INDEX 01 23:12:13
TRACK 08 AUDIO
TITLE "The Gargoyle"
PERFORMER "Paul Gilbert"
INDEX 00 25:47:53
INDEX 01 25:50:48
TRACK 09 AUDIO
TITLE "I Still Have That Other Girl"
PERFORMER "Paul Gilbert"
INDEX 00 30:25:25
INDEX 01 30:25:71
TRACK 10 AUDIO
TITLE "Bultaco Saturno"
PERFORMER "Paul Gilbert"
INDEX 00 33:17:03
INDEX 01 33:18:33
TRACK 11 AUDIO
TITLE "Paul Vs. Godzilla"
PERFORMER "Paul Gilbert"
INDEX 00 37:31:34
INDEX 01 37:31:57
Состав

Paul Gilbert: guitars
Mike Szuter: bass
Jeff Bowders: drums
Emi Gilbert: Hammond B3, piano
2010. Paul Gilbert - Fuzz Universe {2010, US, Shrapnel Records SH 1208}
Страна-производитель диска: US
Год первого выпуска: 2010
Год настоящего издания: 2010
Издатель (лейбл): Shrapnel Records
Номер по каталогу: SH 1208
Format: CD, Album
Аудиокодек: FLAC (*.flac)
Тип рипа: image+.cue
Битрейт аудио: lossless
Продолжительность: 00:57:28
Источник (релизер): ed2k
Наличие сканов в содержимом раздачи: да
Треклист:
01. Fuzz universe (07:03)
02. Olympic (05:58)
03. The Count Juan Chutrifo (03:09)
04. Bach partita in Dm (03:27)
05. Blue Orpheus (05:08)
06. Will my screen door stop Neptune (04:18)
07. Propeller (04:47)
08. Don’t rain on my firewood (04:40)
09. Plastic Dracula (04:51)
10. Blowtorch (05:40)
11. Mantra the lawn (05:34)
12. Batter up (02:55)
Лог создания рипа
Exact Audio Copy V0.99 prebeta 5 from 4. May 2009
EAC extraction logfile from 13. October 2010, 1:14
Paul Gilbert / Fuzz Universe
Used drive : PLEXTOR DVDR PX-860A Adapter: 0 ID: 0
Read mode : Secure
Utilize accurate stream : Yes
Defeat audio cache : Yes
Make use of C2 pointers : No
Read offset correction : 96
Overread into Lead-In and Lead-Out : No
Fill up missing offset samples with silence : Yes
Delete leading and trailing silent blocks : No
Null samples used in CRC calculations : Yes
Used interface : Installed external ASPI interface
Used output format : Monkey's Audio Lossless Encoder
Selected bitrate : Normal Lossless Compression
Quality : High
Add ID3 tag : Yes
Command line compressor : C:\Program Files\Monkey's Audio\MAC.exe
TOC of the extracted CD
Track | Start | Length | Start sector | End sector
---------------------------------------------------------
1 | 0:00.00 | 7:03.23 | 0 | 31747
2 | 7:03.23 | 5:57.71 | 31748 | 58593
3 | 13:01.19 | 3:08.69 | 58594 | 72762
4 | 16:10.13 | 3:26.58 | 72763 | 88270
5 | 19:36.71 | 5:07.48 | 88271 | 111343
6 | 24:44.44 | 4:17.45 | 111344 | 130663
7 | 29:02.14 | 4:47.35 | 130664 | 152223
8 | 33:49.49 | 4:39.46 | 152224 | 173194
9 | 38:29.20 | 4:50.61 | 173195 | 195005
10 | 43:20.06 | 5:40.16 | 195006 | 220521
11 | 49:00.22 | 5:34.24 | 220522 | 245595
12 | 54:34.46 | 2:53.35 | 245596 | 258605
Range status and errors
Selected range
Filename J:\MUSIC\Paul Gilbert - Fuzz Universe.wav
Peak level 100.0 %
Range quality 99.8 %
Copy CRC 5A389E86
Copy OK
No errors occurred
AccurateRip summary
Track 1 cannot be verified as accurate (confidence 1) [02648585], AccurateRip returned [10DA8614]
Track 2 cannot be verified as accurate (confidence 1) [DA10FE80], AccurateRip returned [29B8F36D]
Track 3 cannot be verified as accurate (confidence 1) [86CE0FE6], AccurateRip returned [1F72D87D]
Track 4 cannot be verified as accurate (confidence 1) [882A550B], AccurateRip returned [7229C6F9]
Track 5 cannot be verified as accurate (confidence 1) [CF7A0886], AccurateRip returned [E1A5A8C0]
Track 6 cannot be verified as accurate (confidence 1) [1D484A33], AccurateRip returned [81F07292]
Track 7 cannot be verified as accurate (confidence 1) [64DD7B79], AccurateRip returned [0E520559]
Track 8 cannot be verified as accurate (confidence 1) [D84D8F4B], AccurateRip returned [17C7898E]
Track 9 cannot be verified as accurate (confidence 1) [C6481C77], AccurateRip returned [A6EA638B]
Track 10 cannot be verified as accurate (confidence 1) [C4DED8B3], AccurateRip returned [95DB925C]
Track 11 cannot be verified as accurate (confidence 1) [A6AC161D], AccurateRip returned [A80C4F2D]
Track 12 cannot be verified as accurate (confidence 1) [585D5871], AccurateRip returned [50BBC5F1]
No tracks could be verified as accurate
You may have a different pressing from the one(s) in the database
End of status report
Содержание индексной карты (.CUE)
REM GENRE "Hard Guitar"
REM DATE 2010
REM DISCID 9F0D780C
REM COMMENT "ExactAudioCopy v0.99pb5"
PERFORMER "Paul Gilbert"
TITLE "Fuzz Universe"
FILE "Paul Gilbert - Fuzz Universe.wav" WAVE
TRACK 01 AUDIO
TITLE "Fuzz Universe"
PERFORMER "Paul Gilbert"
FLAGS DCP
INDEX 01 00:00:00
TRACK 02 AUDIO
TITLE "Olympic"
PERFORMER "Paul Gilbert"
FLAGS DCP
INDEX 01 07:03:23
TRACK 03 AUDIO
TITLE "Count Juan Chutrifo"
PERFORMER "Paul Gilbert"
FLAGS DCP
INDEX 01 13:01:19
TRACK 04 AUDIO
TITLE "Bach Partita in Dm"
PERFORMER "Paul Gilbert"
FLAGS DCP
INDEX 01 16:10:13
TRACK 05 AUDIO
TITLE "Blue Orpheus"
PERFORMER "Paul Gilbert"
FLAGS DCP
INDEX 01 19:36:71
TRACK 06 AUDIO
TITLE "Will My Screen Door Stop Neptune"
PERFORMER "Paul Gilbert"
FLAGS DCP
INDEX 01 24:44:44
TRACK 07 AUDIO
TITLE "Propeller"
PERFORMER "Paul Gilbert"
FLAGS DCP
INDEX 01 29:02:14
TRACK 08 AUDIO
TITLE "Don't Rain on My Firewood"
PERFORMER "Paul Gilbert"
FLAGS DCP
INDEX 01 33:49:49
TRACK 09 AUDIO
TITLE "Plastic Dracula"
PERFORMER "Paul Gilbert"
FLAGS DCP
INDEX 01 38:29:20
TRACK 10 AUDIO
TITLE "Blowtorch"
PERFORMER "Paul Gilbert"
FLAGS DCP
INDEX 01 43:20:06
TRACK 11 AUDIO
TITLE "Mantra the Lawn"
PERFORMER "Paul Gilbert"
FLAGS DCP
INDEX 01 49:00:22
TRACK 12 AUDIO
TITLE "Batter Up"
PERFORMER "Paul Gilbert"
FLAGS DCP
INDEX 01 54:34:46
Состав

Paul Gilbert: guitar, vocals
Tony Spinner: guitar, vocals
Craig Martini: bass
Jeff Bowders: drums
Emi Gilbert: keyboards
25.10.2020 торрент перезалит. Добавлен альбом 2015. Paul Gilbert - I Can Destroy {2015, Japan, WHD Entertainment IECP-10334}.--
[Профиль] [ЛС]
Показать сообщения:    
Ответить на тему

Текущее время: 01-Дек 07:52

Часовой пояс: UTC + 3



Вы не можете начинать темы
Вы не можете отвечать на сообщения
Вы не можете редактировать свои сообщения
Вы не можете удалять свои сообщения
Вы не можете голосовать в опросах
Вы не можете прикреплять файлы к сообщениям
Вы не можете скачивать файлы