Валерия - 6 Альбомов (1992-2010) [FLAC|Lossless|tracks + .cue] <Рор>

Ответить на тему
 
Автор Сообщение

Direktor_49 ®

Стаж: 3 года 11 месяцев

Сообщений: 520

Откуда: Калининград

Создавать темы 09-Окт-2020 13:45

[Цитировать]

Год: 2001-2010
Жанр: Рор
Источник (релизер): eloychik ®
Продолжительность: 04:47:31
Кодек: FLAC
Битрейт: Lossless
Тип рипа: tracks + .cue
1992 - Побудь со мной ( Переиздание 1996 )
Издание: Becar Records RR-225080-2
Продолжительность - 0:40:00
Треклист:
01. Отцвели хризантемы
02. Цветы
03. Как хороши те очи
04. Не забудь былые увлеченья
05. Нищая
06. Только раз бывает в жизни встреча
07. Лебединая песня
08. Две розы
09. Не уходи
10. Уголок
11. Калитка
Отчёт ЕАС:
Exact Audio Copy V1.3 from 2. September 2016
Отчёт EAC об извлечении, выполненном 8. октября 2020, 15:14
Валерия / Побудь со мной
Дисковод: Optiarc DVD RW AD-7240S   Adapter: 1  ID: 1
Режим чтения                 : Достоверность
Использование точного потока : Да
Отключение кэша аудио        : Да
Использование указателей C2  : Нет
Коррекция смещения при чтении                     : 48
Способность читать области Lead-in и Lead-out     : Нет
Заполнение пропущенных сэмплов тишиной            : Да
Удаление блоков с тишиной в начале и конце        : Нет
При вычислениях CRC использовались нулевые сэмплы : Да
Интерфейс                                         : Встроенный Win32-интерфейс для Win NT/2000
Обработка зазоров                                 : Добавлено к предыдущему треку
Выходной формат          : Пользовательский кодировщик
Выбранный битрейт        : 128 kBit/s
Качество                 : Высокий
Добавление ID3-тега      : Нет
Утилита сжатия           : C:\Program Files (x86)\Exact Audio Copy\Flac\flac.exe
Дополнительные параметры : -8 -V -T "TITLE=%title%" -T "ARTIST=%artist%" -T "ALBUMARTIST=%albumartist%" -T "ALBUM=%albumtitle%" -T "DATE=%year%" -T "TRACKNUMBER=%tracknr%" -T "TRACKTOTAL=%numtracks%" -T "GENRE=%genre%" -T "COMMENT=%comment%" -T "PERFORMER=%albuminterpret%" -T "COMPOSER=%composer%" %source% -o %dest%
TOC извлечённого CD
Трек |   Старт  | Длительность | Начальный сектор | Конечный сектор
---------------------------------------------------------------------
1  |  0:00.00 |    4:40.00   |           0      |      20999
2  |  4:40.00 |    2:43.37   |       21000      |      33261
3  |  7:23.37 |    2:33.00   |       33262      |      44736
4  |  9:56.37 |    4:04.13   |       44737      |      63049
5  | 14:00.50 |    4:44.20   |       63050      |      84369
6  | 18:44.70 |    4:21.35   |       84370      |     103979
7  | 23:06.30 |    2:54.07   |      103980      |     117036
8  | 26:00.37 |    2:54.68   |      117037      |     130154
9  | 28:55.30 |    4:36.50   |      130155      |     150904
10  | 33:32.05 |    2:30.62   |      150905      |     162216
11  | 36:02.67 |    3:59.08   |      162217      |     180149
Трек  1
Имя файла E:\Раздачи\NNMClub-eloychik ®\Валерия - 6 Альбомов [NNM-Club.to]\1992 - Побудь со мной\01 Отцвели хризантемы.wav
Длина предзазора  0:00:02.00
Пиковый уровень 89.4 %
Скорость извлечения 2.3 X
Качество трека 100.0 %
CRC теста E2CC3ED6
CRC копии E2CC3ED6
Точное извлечение (достоверность 1)  [27FF3B1E]  (AR v2)
Копирование... OK
Трек  2
Имя файла E:\Раздачи\NNMClub-eloychik ®\Валерия - 6 Альбомов [NNM-Club.to]\1992 - Побудь со мной\02 Цветы.wav
Длина предзазора  0:00:02.50
Пиковый уровень 100.0 %
Скорость извлечения 2.4 X
Качество трека 100.0 %
CRC теста F42CE654
CRC копии F42CE654
Точное извлечение (достоверность 1)  [9C768879]  (AR v2)
Копирование... OK
Трек  3
Имя файла E:\Раздачи\NNMClub-eloychik ®\Валерия - 6 Альбомов [NNM-Club.to]\1992 - Побудь со мной\03 Как хороши те очи.wav
Длина предзазора  0:00:03.30
Пиковый уровень 97.7 %
Скорость извлечения 2.5 X
Качество трека 100.0 %
CRC теста 2501F0A6
CRC копии 2501F0A6
Точное извлечение (достоверность 1)  [091BF456]  (AR v2)
Копирование... OK
Трек  4
Имя файла E:\Раздачи\NNMClub-eloychik ®\Валерия - 6 Альбомов [NNM-Club.to]\1992 - Побудь со мной\04 Не забудь былые увлеченья.wav
Длина предзазора  0:00:03.37
Пиковый уровень 100.0 %
Скорость извлечения 2.9 X
Качество трека 100.0 %
CRC теста FE995A95
CRC копии FE995A95
Точное извлечение (достоверность 1)  [AC9FBF5F]  (AR v2)
Копирование... OK
Трек  5
Имя файла E:\Раздачи\NNMClub-eloychik ®\Валерия - 6 Альбомов [NNM-Club.to]\1992 - Побудь со мной\05 Нищая.wav
Длина предзазора  0:00:03.00
Пиковый уровень 98.1 %
Скорость извлечения 3.2 X
Качество трека 100.0 %
CRC теста C404F7B1
CRC копии C404F7B1
Точное извлечение (достоверность 1)  [44247617]  (AR v2)
Копирование... OK
Трек  6
Имя файла E:\Раздачи\NNMClub-eloychik ®\Валерия - 6 Альбомов [NNM-Club.to]\1992 - Побудь со мной\06 Только раз бывает в жизни встреча.wav
Длина предзазора  0:00:04.33
Пиковый уровень 66.2 %
Скорость извлечения 3.3 X
Качество трека 100.0 %
CRC теста B0C74D5C
CRC копии B0C74D5C
Точное извлечение (достоверность 1)  [9C68DA21]  (AR v2)
Копирование... OK
Трек  7
Имя файла E:\Раздачи\NNMClub-eloychik ®\Валерия - 6 Альбомов [NNM-Club.to]\1992 - Побудь со мной\07 Лебединая песня.wav
Длина предзазора  0:00:02.51
Пиковый уровень 65.9 %
Скорость извлечения 3.3 X
Качество трека 100.0 %
CRC теста 98440B5A
CRC копии 98440B5A
Точное извлечение (достоверность 1)  [EB5BC39B]  (AR v2)
Копирование... OK
Трек  8
Имя файла E:\Раздачи\NNMClub-eloychik ®\Валерия - 6 Альбомов [NNM-Club.to]\1992 - Побудь со мной\08 Две розы.wav
Длина предзазора  0:00:01.25
Пиковый уровень 91.6 %
Скорость извлечения 3.4 X
Качество трека 100.0 %
CRC теста 97D879B4
CRC копии 97D879B4
Точное извлечение (достоверность 1)  [F55403B6]  (AR v2)
Копирование... OK
Трек  9
Имя файла E:\Раздачи\NNMClub-eloychik ®\Валерия - 6 Альбомов [NNM-Club.to]\1992 - Побудь со мной\09 Не уходи.wav
Длина предзазора  0:00:02.30
Пиковый уровень 86.5 %
Скорость извлечения 3.8 X
Качество трека 100.0 %
CRC теста DD35DA6D
CRC копии DD35DA6D
Точное извлечение (достоверность 1)  [1CCF1915]  (AR v2)
Копирование... OK
Трек 10
Имя файла E:\Раздачи\NNMClub-eloychik ®\Валерия - 6 Альбомов [NNM-Club.to]\1992 - Побудь со мной\10 Уголок.wav
Длина предзазора  0:00:02.73
Пиковый уровень 97.6 %
Скорость извлечения 3.6 X
Качество трека 100.0 %
CRC теста 174037D8
CRC копии 174037D8
Точное извлечение (достоверность 1)  [60B3F6DC]  (AR v2)
Копирование... OK
Трек 11
Имя файла E:\Раздачи\NNMClub-eloychik ®\Валерия - 6 Альбомов [NNM-Club.to]\1992 - Побудь со мной\11 Калитка.wav
Длина предзазора  0:00:02.17
Пиковый уровень 100.0 %
Скорость извлечения 4.0 X
Качество трека 100.0 %
CRC теста FD0A4A1E
CRC копии FD0A4A1E
Точное извлечение (достоверность 1)  [45211CDC]  (AR v2)
Копирование... OK
Все треки извлечены точно
Ошибок не произошло
Конец отчёта
==== Контрольная сумма отчёта 856A61442843F712F8355FDA7F3D3DA8FA4E1AEF737CC44FB64C6207D45FCBCD ====
2001 - Глаза цвета неба
Издание: J.R.C 01212-2
Продолжительность - 00:50:15
Треклист:
01. Не обижай меня
02. Рига - Москва
03. Таю
04. Не обманывай
05. Обручальная
06. Больше чем жизнь
07. С ангелом
08. Метелица
09. Ты где - то там
10. Мальчики не плачут
11. Давным - давно
12. Песня для тебя
Отчёт ЕАС:
Exact Audio Copy V1.3 from 2. September 2016
Отчёт EAC об извлечении, выполненном 16. июля 2019, 22:18
Валерия / Глаза цвета неба
Дисковод: Optiarc DVD RW AD-7240S   Adapter: 1  ID: 1
Режим чтения                 : Достоверность
Использование точного потока : Да
Отключение кэша аудио        : Да
Использование указателей C2  : Нет
Коррекция смещения при чтении                     : 48
Способность читать области Lead-in и Lead-out     : Нет
Заполнение пропущенных сэмплов тишиной            : Да
Удаление блоков с тишиной в начале и конце        : Нет
При вычислениях CRC использовались нулевые сэмплы : Да
Интерфейс                                         : Встроенный Win32-интерфейс для Win NT/2000
Обработка зазоров                                 : Добавлено к предыдущему треку
Выходной формат          : Пользовательский кодировщик
Выбранный битрейт        : 128 kBit/s
Качество                 : Высокий
Добавление ID3-тега      : Нет
Утилита сжатия           : C:\Program Files (x86)\Exact Audio Copy\Flac\flac.exe
Дополнительные параметры : -V -8 -T "Date=%year%" -T "Genre=%genre%" %source%
TOC извлечённого CD
Трек |   Старт  | Длительность | Начальный сектор | Конечный сектор
---------------------------------------------------------------------
1  |  0:00.00 |    5:26.62   |           0      |      24511
2  |  5:26.62 |    3:46.38   |       24512      |      41499
3  |  9:13.25 |    4:56.39   |       41500      |      63738
4  | 14:09.64 |    3:40.07   |       63739      |      80245
5  | 17:49.71 |    4:07.46   |       80246      |      98816
6  | 21:57.42 |    3:42.24   |       98817      |     115490
7  | 25:39.66 |    4:00.09   |      115491      |     133499
8  | 29:40.00 |    4:01.62   |      133500      |     151636
9  | 33:41.62 |    4:23.19   |      151637      |     171380
10  | 38:05.06 |    4:22.64   |      171381      |     191094
11  | 42:27.70 |    3:49.05   |      191095      |     208274
12  | 46:17.00 |    3:57.58   |      208275      |     226107
13  | 52:46.58 |   10:36.14   |      237508      |     285221
Трек  1
Имя файла E:\Раздачи\NNMClub-eloychik ®\Валерия - 5 Альбомов [NNM-Club.to]\2001 - Глаза цвета неба\01 Не обижай меня.wav
Длина предзазора  0:00:02.00
Пиковый уровень 98.8 %
Скорость извлечения 2.6 X
Качество трека 100.0 %
CRC теста 124D6D84
CRC копии 124D6D84
Точное извлечение (достоверность 1)  [254DC161]  (AR v1)
Копирование... OK
Трек  2
Имя файла E:\Раздачи\NNMClub-eloychik ®\Валерия - 5 Альбомов [NNM-Club.to]\2001 - Глаза цвета неба\02 Рига - Москва.wav
Длина предзазора  0:00:02.00
Пиковый уровень 94.4 %
Скорость извлечения 2.7 X
Качество трека 100.0 %
CRC теста 4C0ED580
CRC копии 4C0ED580
Точное извлечение (достоверность 1)  [8F26126A]  (AR v1)
Копирование... OK
Трек  3
Имя файла E:\Раздачи\NNMClub-eloychik ®\Валерия - 5 Альбомов [NNM-Club.to]\2001 - Глаза цвета неба\03 Таю.wav
Длина предзазора  0:00:02.00
Пиковый уровень 98.8 %
Скорость извлечения 3.1 X
Качество трека 100.0 %
CRC теста 3A59D72F
CRC копии 3A59D72F
Точное извлечение (достоверность 1)  [05405AA3]  (AR v1)
Копирование... OK
Трек  4
Имя файла E:\Раздачи\NNMClub-eloychik ®\Валерия - 5 Альбомов [NNM-Club.to]\2001 - Глаза цвета неба\04 Не обманывай.wav
Длина предзазора  0:00:02.00
Пиковый уровень 98.8 %
Скорость извлечения 2.7 X
Качество трека 99.9 %
CRC теста 2C386DD2
CRC копии 2C386DD2
Точное извлечение (достоверность 1)  [DDD557BC]  (AR v1)
Копирование... OK
Трек  5
Имя файла E:\Раздачи\NNMClub-eloychik ®\Валерия - 5 Альбомов [NNM-Club.to]\2001 - Глаза цвета неба\05 Обручальная.wav
Длина предзазора  0:00:02.00
Пиковый уровень 98.8 %
Скорость извлечения 3.4 X
Качество трека 100.0 %
CRC теста 9434EED5
CRC копии 9434EED5
Точное извлечение (достоверность 1)  [A6D3016D]  (AR v1)
Копирование... OK
Трек  6
Имя файла E:\Раздачи\NNMClub-eloychik ®\Валерия - 5 Альбомов [NNM-Club.to]\2001 - Глаза цвета неба\06 Больше чем жизнь.wav
Длина предзазора  0:00:02.00
Пиковый уровень 98.8 %
Скорость извлечения 3.5 X
Качество трека 100.0 %
CRC теста 305FBF7A
CRC копии 305FBF7A
Точное извлечение (достоверность 1)  [EB7C863E]  (AR v1)
Копирование... OK
Трек  7
Имя файла E:\Раздачи\NNMClub-eloychik ®\Валерия - 5 Альбомов [NNM-Club.to]\2001 - Глаза цвета неба\07 С ангелом.wav
Длина предзазора  0:00:02.00
Пиковый уровень 98.8 %
Скорость извлечения 3.7 X
Качество трека 100.0 %
CRC теста 14C0990A
CRC копии 14C0990A
Точное извлечение (достоверность 1)  [04EE3A5F]  (AR v1)
Копирование... OK
Трек  8
Имя файла E:\Раздачи\NNMClub-eloychik ®\Валерия - 5 Альбомов [NNM-Club.to]\2001 - Глаза цвета неба\08 Метелица.wav
Длина предзазора  0:00:02.00
Пиковый уровень 94.4 %
Скорость извлечения 3.9 X
Качество трека 100.0 %
CRC теста C53992F7
CRC копии C53992F7
Точное извлечение (достоверность 1)  [12F8C78E]  (AR v1)
Копирование... OK
Трек  9
Имя файла E:\Раздачи\NNMClub-eloychik ®\Валерия - 5 Альбомов [NNM-Club.to]\2001 - Глаза цвета неба\09 Ты где - то там.wav
Длина предзазора  0:00:02.00
Пиковый уровень 97.7 %
Скорость извлечения 3.7 X
Качество трека 99.9 %
CRC теста 352F6BFD
CRC копии 352F6BFD
Точное извлечение (достоверность 1)  [78B73192]  (AR v1)
Копирование... OK
Трек 10
Имя файла E:\Раздачи\NNMClub-eloychik ®\Валерия - 5 Альбомов [NNM-Club.to]\2001 - Глаза цвета неба\10 Мальчики не плачут.wav
Длина предзазора  0:00:02.00
Пиковый уровень 98.8 %
Скорость извлечения 4.2 X
Качество трека 100.0 %
CRC теста ED8D8A02
CRC копии ED8D8A02
Точное извлечение (достоверность 1)  [A25456D3]  (AR v1)
Копирование... OK
Трек 11
Имя файла E:\Раздачи\NNMClub-eloychik ®\Валерия - 5 Альбомов [NNM-Club.to]\2001 - Глаза цвета неба\11 Давным - давно.wav
Длина предзазора  0:00:02.00
Пиковый уровень 98.8 %
Скорость извлечения 3.8 X
Качество трека 99.9 %
CRC теста 2E3183DD
CRC копии 2E3183DD
Точное извлечение (достоверность 1)  [47331890]  (AR v1)
Копирование... OK
Трек 12
Имя файла E:\Раздачи\NNMClub-eloychik ®\Валерия - 5 Альбомов [NNM-Club.to]\2001 - Глаза цвета неба\12 Песня для тебя.wav
Длина предзазора  0:00:02.00
Пиковый уровень 98.8 %
Скорость извлечения 4.5 X
Качество трека 100.0 %
CRC теста 7734CD00
CRC копии 7734CD00
Точное извлечение (достоверность 1)  [AE7C77FA]  (AR v1)
Копирование... OK
Все треки извлечены точно
Ошибок не произошло
Конец отчёта
==== Контрольная сумма отчёта 1F361207C58B86460984F804FA7ED063030AA40999FD8669CE4E2E593F2F5299 ====
2003 - Страна любви
Издание: J.R.C 03243-2
Продолжительность - 00:39:27
Треклист:
01. Перелей вода
02. Часики
03. Была любовь
04. Радуга - дуга
05. Чёрно - белый цвет
06. Ты пришёл
07. Розовый туман
08. Угадай
09. Обо мне вспоминай
10. Страна любви
11. Часики ( Remix )
Отчёт ЕАС:
Exact Audio Copy V1.3 from 2. September 2016
Отчёт EAC об извлечении, выполненном 16. июля 2019, 22:52
Валерия / Страна любви
Дисковод: Optiarc DVD RW AD-7240S   Adapter: 1  ID: 1
Режим чтения                 : Достоверность
Использование точного потока : Да
Отключение кэша аудио        : Да
Использование указателей C2  : Нет
Коррекция смещения при чтении                     : 48
Способность читать области Lead-in и Lead-out     : Нет
Заполнение пропущенных сэмплов тишиной            : Да
Удаление блоков с тишиной в начале и конце        : Нет
При вычислениях CRC использовались нулевые сэмплы : Да
Интерфейс                                         : Встроенный Win32-интерфейс для Win NT/2000
Обработка зазоров                                 : Добавлено к предыдущему треку
Выходной формат          : Пользовательский кодировщик
Выбранный битрейт        : 128 kBit/s
Качество                 : Высокий
Добавление ID3-тега      : Нет
Утилита сжатия           : C:\Program Files (x86)\Exact Audio Copy\Flac\flac.exe
Дополнительные параметры : -V -8 -T "Date=%year%" -T "Genre=%genre%" %source%
TOC извлечённого CD
Трек |   Старт  | Длительность | Начальный сектор | Конечный сектор
---------------------------------------------------------------------
1  |  0:00.00 |    3:59.54   |           0      |      17978
2  |  3:59.54 |    3:05.38   |       17979      |      31891
3  |  7:05.17 |    3:35.12   |       31892      |      48028
4  | 10:40.29 |    3:30.61   |       48029      |      63839
5  | 14:11.15 |    3:04.57   |       63840      |      77696
6  | 17:15.72 |    4:09.67   |       77697      |      96438
7  | 21:25.64 |    3:49.42   |       96439      |     113655
8  | 25:15.31 |    3:38.22   |      113656      |     130027
9  | 28:53.53 |    3:37.09   |      130028      |     146311
10  | 32:30.62 |    3:46.07   |      146312      |     163268
11  | 36:16.69 |    3:09.60   |      163269      |     177503
Трек  1
Имя файла E:\Раздачи\NNMClub-eloychik ®\Валерия - 5 Альбомов [NNM-Club.to]\2003 - Страна любви\01 Перелей вода.wav
Длина предзазора  0:00:02.00
Пиковый уровень 100.0 %
Скорость извлечения 2.3 X
Качество трека 100.0 %
CRC теста 5B173519
CRC копии 5B173519
Точность не определена (достоверность 4)  [83995053], AccurateRip вернул [73DFAB8F]  (AR v2)
Копирование... OK
Трек  2
Имя файла E:\Раздачи\NNMClub-eloychik ®\Валерия - 5 Альбомов [NNM-Club.to]\2003 - Страна любви\02 Часики.wav
Длина предзазора  0:00:02.24
Пиковый уровень 99.4 %
Скорость извлечения 2.5 X
Качество трека 100.0 %
CRC теста 4BDD67A5
CRC копии 4BDD67A5
Точность не определена (достоверность 4)  [134D0229], AccurateRip вернул [6AB97C42]  (AR v2)
Копирование... OK
Трек  3
Имя файла E:\Раздачи\NNMClub-eloychik ®\Валерия - 5 Альбомов [NNM-Club.to]\2003 - Страна любви\03 Была любовь.wav
Длина предзазора  0:00:01.64
Пиковый уровень 99.4 %
Скорость извлечения 2.7 X
Качество трека 100.0 %
CRC теста A9F945BD
CRC копии A9F945BD
Точность не определена (достоверность 4)  [AC8DC235], AccurateRip вернул [97C3C2DC]  (AR v2)
Копирование... OK
Трек  4
Имя файла E:\Раздачи\NNMClub-eloychik ®\Валерия - 5 Альбомов [NNM-Club.to]\2003 - Страна любви\04 Радуга - дуга.wav
Длина предзазора  0:00:01.66
Пиковый уровень 99.9 %
Скорость извлечения 2.5 X
Качество трека 99.9 %
CRC теста 9AA6EDC9
CRC копии 9AA6EDC9
Точность не определена (достоверность 4)  [91E05D79], AccurateRip вернул [C3291E28]  (AR v2)
Копирование... OK
Трек  5
Имя файла E:\Раздачи\NNMClub-eloychik ®\Валерия - 5 Альбомов [NNM-Club.to]\2003 - Страна любви\05 Чёрно - белый цвет.wav
Длина предзазора  0:00:01.65
Пиковый уровень 99.9 %
Скорость извлечения 3.0 X
Качество трека 100.0 %
CRC теста 6350D918
CRC копии 6350D918
Точность не определена (достоверность 4)  [3633ECF5], AccurateRip вернул [629E6B95]  (AR v2)
Копирование... OK
Трек  6
Имя файла E:\Раздачи\NNMClub-eloychik ®\Валерия - 5 Альбомов [NNM-Club.to]\2003 - Страна любви\06 Ты пришёл.wav
Длина предзазора  0:00:01.63
Пиковый уровень 99.4 %
Скорость извлечения 3.3 X
Качество трека 100.0 %
CRC теста BA13F593
CRC копии BA13F593
Точность не определена (достоверность 4)  [427667E9], AccurateRip вернул [DBECD888]  (AR v2)
Копирование... OK
Трек  7
Имя файла E:\Раздачи\NNMClub-eloychik ®\Валерия - 5 Альбомов [NNM-Club.to]\2003 - Страна любви\07 Розовый туман.wav
Длина предзазора  0:00:01.70
Пиковый уровень 99.4 %
Скорость извлечения 3.5 X
Качество трека 100.0 %
CRC теста 1C4B5499
CRC копии 1C4B5499
Точность не определена (достоверность 4)  [0599C074], AccurateRip вернул [484FD775]  (AR v2)
Копирование... OK
Трек  8
Имя файла E:\Раздачи\NNMClub-eloychik ®\Валерия - 5 Альбомов [NNM-Club.to]\2003 - Страна любви\08 Угадай.wav
Длина предзазора  0:00:02.17
Пиковый уровень 100.0 %
Скорость извлечения 3.6 X
Качество трека 100.0 %
CRC теста C674A26B
CRC копии C674A26B
Точность не определена (достоверность 4)  [A24967E5], AccurateRip вернул [BEED52DD]  (AR v2)
Копирование... OK
Трек  9
Имя файла E:\Раздачи\NNMClub-eloychik ®\Валерия - 5 Альбомов [NNM-Club.to]\2003 - Страна любви\09 Обо мне вспоминай.wav
Длина предзазора  0:00:01.66
Пиковый уровень 99.4 %
Скорость извлечения 3.3 X
Качество трека 99.9 %
CRC теста CB8E039C
CRC копии CB8E039C
Точность не определена (достоверность 4)  [A721FCB9], AccurateRip вернул [B245EFB0]  (AR v2)
Копирование... OK
Трек 10
Имя файла E:\Раздачи\NNMClub-eloychik ®\Валерия - 5 Альбомов [NNM-Club.to]\2003 - Страна любви\10 Страна любви.wav
Длина предзазора  0:00:01.63
Пиковый уровень 99.9 %
Скорость извлечения 3.5 X
Качество трека 99.9 %
CRC теста DC0B4B9A
CRC копии DC0B4B9A
Точность не определена (достоверность 4)  [74083060], AccurateRip вернул [9FE18D25]  (AR v2)
Копирование... OK
Трек 11
Имя файла E:\Раздачи\NNMClub-eloychik ®\Валерия - 5 Альбомов [NNM-Club.to]\2003 - Страна любви\11 Часики ( Remix ).wav
Длина предзазора  0:00:01.65
Пиковый уровень 100.0 %
Скорость извлечения 4.0 X
Качество трека 100.0 %
CRC теста D296DB87
CRC копии D296DB87
Точность не определена (достоверность 4)  [84264430], AccurateRip вернул [89C65F67]  (AR v2)
Копирование... OK
Ни один трек не прошёл проверки на точность
В вашей базе может быть иной вариант штамповки диска
Ошибок не произошло
Конец отчёта
==== Контрольная сумма отчёта 9C0D912FD2A3006C39CECC1E9BE03700F04D3B3D1BAD655E3FDDBEBCE3B614EC ====
2008 - Неподконтрольно
Издание: Moon Records MR 2830-2
Продолжительность - 00:57:01
Треклист:
01. Вне игры
02. Снег
03. Неподконтрольно
04. Ты не со мной
05. Разрушить любовь
06. Мы вместе
07. Боль! ( Счастье на части )
08. Где же ты?
09. Да и нет
10. До встречи
11. Человек дождя ( из сериала Родные люди )
12. Оправдаешь ли ты...
13. Мы вместе ( DJ Vartan & Portnov aka hit Deejays remix 2007 )
14. Человек дождя ( караоке версия )
Отчёт ЕАС:
Exact Audio Copy V1.3 from 2. September 2016
Отчёт EAC об извлечении, выполненном 16. июля 2019, 23:49
Валерия / Неподконтрольно
Дисковод: Optiarc DVD RW AD-7240S   Adapter: 1  ID: 1
Режим чтения                 : Достоверность
Использование точного потока : Да
Отключение кэша аудио        : Да
Использование указателей C2  : Нет
Коррекция смещения при чтении                     : 48
Способность читать области Lead-in и Lead-out     : Нет
Заполнение пропущенных сэмплов тишиной            : Да
Удаление блоков с тишиной в начале и конце        : Нет
При вычислениях CRC использовались нулевые сэмплы : Да
Интерфейс                                         : Встроенный Win32-интерфейс для Win NT/2000
Обработка зазоров                                 : Добавлено к предыдущему треку
Выходной формат          : Пользовательский кодировщик
Выбранный битрейт        : 128 kBit/s
Качество                 : Высокий
Добавление ID3-тега      : Нет
Утилита сжатия           : C:\Program Files (x86)\Exact Audio Copy\Flac\flac.exe
Дополнительные параметры : -V -8 -T "Date=%year%" -T "Genre=%genre%" %source%
TOC извлечённого CD
Трек |   Старт  | Длительность | Начальный сектор | Конечный сектор
---------------------------------------------------------------------
1  |  0:00.00 |    3:38.28   |           0      |      16377
2  |  3:38.28 |    4:30.27   |       16378      |      36654
3  |  8:08.55 |    3:46.63   |       36655      |      53667
4  | 11:55.43 |    3:49.58   |       53668      |      70900
5  | 15:45.26 |    4:09.70   |       70901      |      89645
6  | 19:55.21 |    4:08.51   |       89646      |     108296
7  | 24:03.72 |    3:47.18   |      108297      |     125339
8  | 27:51.15 |    4:43.74   |      125340      |     146638
9  | 32:35.14 |    3:49.73   |      146639      |     163886
10  | 36:25.12 |    4:04.38   |      163887      |     182224
11  | 40:29.50 |    3:52.51   |      182225      |     199675
12  | 44:22.26 |    3:12.39   |      199676      |     214114
13  | 47:34.65 |    5:35.28   |      214115      |     239267
14  | 53:10.18 |    3:50.58   |      239268      |     256575
Трек  1
Имя файла E:\Раздачи\NNMClub-eloychik ®\Валерия - 5 Альбомов [NNM-Club.to]\2008 - Неподконтрольно\01 Вне игры.wav
Длина предзазора  0:00:02.00
Пиковый уровень 98.1 %
Скорость извлечения 2.2 X
Качество трека 100.0 %
CRC теста B16E96E4
CRC копии B16E96E4
Точное извлечение (достоверность 1)  [0DF765EB]  (AR v2)
Копирование... OK
Трек  2
Имя файла E:\Раздачи\NNMClub-eloychik ®\Валерия - 5 Альбомов [NNM-Club.to]\2008 - Неподконтрольно\02 Снег.wav
Пиковый уровень 98.7 %
Скорость извлечения 2.6 X
Качество трека 100.0 %
CRC теста C669CE1F
CRC копии C669CE1F
Точное извлечение (достоверность 1)  [011E4AA6]  (AR v2)
Копирование... OK
Трек  3
Имя файла E:\Раздачи\NNMClub-eloychik ®\Валерия - 5 Альбомов [NNM-Club.to]\2008 - Неподконтрольно\03 Неподконтрольно.wav
Пиковый уровень 93.1 %
Скорость извлечения 2.8 X
Качество трека 100.0 %
CRC теста EC323AE4
CRC копии EC323AE4
Точное извлечение (достоверность 1)  [D21F4CBC]  (AR v2)
Копирование... OK
Трек  4
Имя файла E:\Раздачи\NNMClub-eloychik ®\Валерия - 5 Альбомов [NNM-Club.to]\2008 - Неподконтрольно\04 Ты не со мной.wav
Пиковый уровень 100.0 %
Скорость извлечения 3.0 X
Качество трека 100.0 %
CRC теста 360911D6
CRC копии 360911D6
Точное извлечение (достоверность 1)  [1E870A77]  (AR v2)
Копирование... OK
Трек  5
Имя файла E:\Раздачи\NNMClub-eloychik ®\Валерия - 5 Альбомов [NNM-Club.to]\2008 - Неподконтрольно\05 Разрушить любовь.wav
Пиковый уровень 99.1 %
Скорость извлечения 3.2 X
Качество трека 100.0 %
CRC теста 6822EBC5
CRC копии 6822EBC5
Точное извлечение (достоверность 1)  [C2205B01]  (AR v2)
Копирование... OK
Трек  6
Имя файла E:\Раздачи\NNMClub-eloychik ®\Валерия - 5 Альбомов [NNM-Club.to]\2008 - Неподконтрольно\06 Мы вместе.wav
Пиковый уровень 100.0 %
Скорость извлечения 3.0 X
Качество трека 99.9 %
CRC теста 90FB78E1
CRC копии 90FB78E1
Точное извлечение (достоверность 1)  [1947B66D]  (AR v2)
Копирование... OK
Трек  7
Имя файла E:\Раздачи\NNMClub-eloychik ®\Валерия - 5 Альбомов [NNM-Club.to]\2008 - Неподконтрольно\07 Боль! ( Счастье на части ).wav
Пиковый уровень 99.1 %
Скорость извлечения 3.5 X
Качество трека 100.0 %
CRC теста 21DA9F45
CRC копии 21DA9F45
Точное извлечение (достоверность 1)  [93986EED]  (AR v2)
Копирование... OK
Трек  8
Имя файла E:\Раздачи\NNMClub-eloychik ®\Валерия - 5 Альбомов [NNM-Club.to]\2008 - Неподконтрольно\08  Где же ты.wav
Пиковый уровень 99.7 %
Скорость извлечения 3.8 X
Качество трека 100.0 %
CRC теста 13A04EC5
CRC копии 13A04EC5
Точное извлечение (достоверность 1)  [1D191896]  (AR v2)
Копирование... OK
Трек  9
Имя файла E:\Раздачи\NNMClub-eloychik ®\Валерия - 5 Альбомов [NNM-Club.to]\2008 - Неподконтрольно\09 Да и нет.wav
Пиковый уровень 99.7 %
Скорость извлечения 3.9 X
Качество трека 100.0 %
CRC теста 89FB0161
CRC копии 89FB0161
Точное извлечение (достоверность 1)  [AD69E655]  (AR v2)
Копирование... OK
Трек 10
Имя файла E:\Раздачи\NNMClub-eloychik ®\Валерия - 5 Альбомов [NNM-Club.to]\2008 - Неподконтрольно\10 До встречи.wav
Пиковый уровень 99.2 %
Скорость извлечения 4.1 X
Качество трека 100.0 %
CRC теста 975C66FC
CRC копии 975C66FC
Точное извлечение (достоверность 1)  [30190D91]  (AR v2)
Копирование... OK
Трек 11
Имя файла E:\Раздачи\NNMClub-eloychik ®\Валерия - 5 Альбомов [NNM-Club.to]\2008 - Неподконтрольно\11 Человек дождя ( из сериала Родные люди ).wav
Пиковый уровень 100.0 %
Скорость извлечения 4.2 X
Качество трека 100.0 %
CRC теста 1B6E5E32
CRC копии 1B6E5E32
Точное извлечение (достоверность 1)  [84BC2285]  (AR v2)
Копирование... OK
Трек 12
Имя файла E:\Раздачи\NNMClub-eloychik ®\Валерия - 5 Альбомов [NNM-Club.to]\2008 - Неподконтрольно\12 Оправдаешь ли ты....wav
Пиковый уровень 99.6 %
Скорость извлечения 4.2 X
Качество трека 100.0 %
CRC теста 81A2BAA5
CRC копии 81A2BAA5
Точное извлечение (достоверность 1)  [28DBFC8D]  (AR v2)
Копирование... OK
Трек 13
Имя файла E:\Раздачи\NNMClub-eloychik ®\Валерия - 5 Альбомов [NNM-Club.to]\2008 - Неподконтрольно\13 Мы вместе ( DJ Vartan & Portnov aka hit Deejays remix 2007 ).wav
Пиковый уровень 100.0 %
Скорость извлечения 3.9 X
Качество трека 99.9 %
CRC теста 173CBC71
CRC копии 173CBC71
Точное извлечение (достоверность 1)  [AF8292E4]  (AR v2)
Копирование... OK
Трек 14
Имя файла E:\Раздачи\NNMClub-eloychik ®\Валерия - 5 Альбомов [NNM-Club.to]\2008 - Неподконтрольно\14 Человек дождя ( караоке версия ).wav
Пиковый уровень 100.0 %
Скорость извлечения 0.4 X
Качество трека 99.0 %
CRC теста 4D072A69
CRC копии 4D072A69
Точное извлечение (достоверность 1)  [E4F355ED]  (AR v2)
Копирование... OK
Все треки извлечены точно
Ошибок не произошло
Конец отчёта
==== Контрольная сумма отчёта 41725D8C019A25264FD5DD450AF1F5946673A2893A1A6763083CBE83F538DDF6 ====
2008 - Out Of Control
Издание: Moon Records MR 2830-2
Продолжительность - 00:58:20
Треклист:
01. The Party's Over
02. Wild
03. Break It All
04. I Know
05. Out Of Control
06. Love Sick
07. Here I Am
08. No One
09. Next To You ( Featuring Dylan Burns )
10. There I'll Be
11. Where Are You?
12. Romantic
13. Somehow, Someway
14. Romantic ( DJ Vartan & DJ Pasha Portnov Aka Hit DeeJays Remix 2007 )
15. Stayin' Alive - Valeriya And Robin Gibb ( Special Bonus Track )
Отчёт ЕАС:
Exact Audio Copy V1.3 from 2. September 2016
Отчёт EAC об извлечении, выполненном 16. июля 2019, 20:59
Valeriya / Out Of Control
Дисковод: Optiarc DVD RW AD-7240S   Adapter: 1  ID: 1
Режим чтения                 : Достоверность
Использование точного потока : Да
Отключение кэша аудио        : Да
Использование указателей C2  : Нет
Коррекция смещения при чтении                     : 48
Способность читать области Lead-in и Lead-out     : Нет
Заполнение пропущенных сэмплов тишиной            : Да
Удаление блоков с тишиной в начале и конце        : Нет
При вычислениях CRC использовались нулевые сэмплы : Да
Интерфейс                                         : Встроенный Win32-интерфейс для Win NT/2000
Обработка зазоров                                 : Добавлено к предыдущему треку
Выходной формат          : Пользовательский кодировщик
Выбранный битрейт        : 128 kBit/s
Качество                 : Высокий
Добавление ID3-тега      : Нет
Утилита сжатия           : C:\Program Files (x86)\Exact Audio Copy\Flac\flac.exe
Дополнительные параметры : -V -8 -T "Date=%year%" -T "Genre=%genre%" %source%
TOC извлечённого CD
Трек |   Старт  | Длительность | Начальный сектор | Конечный сектор
---------------------------------------------------------------------
1  |  0:00.00 |    3:59.24   |           0      |      17948
2  |  3:59.24 |    3:47.27   |       17949      |      35000
3  |  7:46.51 |    4:09.63   |       35001      |      53738
4  | 11:56.39 |    3:37.49   |       53739      |      70062
5  | 15:34.13 |    3:47.00   |       70063      |      87087
6  | 19:21.13 |    4:01.56   |       87088      |     105218
7  | 23:22.69 |    3:50.36   |      105219      |     122504
8  | 27:13.30 |    4:29.30   |      122505      |     142709
9  | 31:42.60 |    2:22.47   |      142710      |     153406
10  | 34:05.32 |    3:48.58   |      153407      |     170564
11  | 37:54.15 |    4:44.64   |      170565      |     191928
12  | 42:39.04 |    4:09.49   |      191929      |     210652
13  | 46:48.53 |    4:23.15   |      210653      |     230392
14  | 51:11.68 |    3:35.68   |      230393      |     246585
15  | 54:47.61 |    3:32.06   |      246586      |     262491
Трек  1
Имя файла E:\Раздачи\NNMClub-eloychik ®\Валерия - 5 Альбомов [NNM-Club.to]\2008 - Out Of Control\01 The Party`s Over.wav
Длина предзазора  0:00:02.00
Пиковый уровень 100.0 %
Скорость извлечения 2.3 X
Качество трека 100.0 %
CRC теста 565DD35E
CRC копии 565DD35E
Трек не обнаружен в базе AccurateRip
Копирование... OK
Трек  2
Имя файла E:\Раздачи\NNMClub-eloychik ®\Валерия - 5 Альбомов [NNM-Club.to]\2008 - Out Of Control\02 Wild.wav
Пиковый уровень 92.9 %
Скорость извлечения 2.5 X
Качество трека 100.0 %
CRC теста 08FCB128
CRC копии 08FCB128
Трек не обнаружен в базе AccurateRip
Копирование... OK
Трек  3
Имя файла E:\Раздачи\NNMClub-eloychik ®\Валерия - 5 Альбомов [NNM-Club.to]\2008 - Out Of Control\03 Break It All.wav
Пиковый уровень 99.0 %
Скорость извлечения 2.8 X
Качество трека 100.0 %
CRC теста 78CB6F12
CRC копии 78CB6F12
Трек не обнаружен в базе AccurateRip
Копирование... OK
Трек  4
Имя файла E:\Раздачи\NNMClub-eloychik ®\Валерия - 5 Альбомов [NNM-Club.to]\2008 - Out Of Control\04 I Know.wav
Пиковый уровень 98.2 %
Скорость извлечения 2.9 X
Качество трека 100.0 %
CRC теста 167D9269
CRC копии 167D9269
Трек не обнаружен в базе AccurateRip
Копирование... OK
Трек  5
Имя файла E:\Раздачи\NNMClub-eloychik ®\Валерия - 5 Альбомов [NNM-Club.to]\2008 - Out Of Control\05 Out Of Control.wav
Пиковый уровень 93.5 %
Скорость извлечения 3.1 X
Качество трека 100.0 %
CRC теста EBE1F39F
CRC копии EBE1F39F
Трек не обнаружен в базе AccurateRip
Копирование... OK
Трек  6
Имя файла E:\Раздачи\NNMClub-eloychik ®\Валерия - 5 Альбомов [NNM-Club.to]\2008 - Out Of Control\06 Love Sick.wav
Пиковый уровень 99.1 %
Скорость извлечения 3.4 X
Качество трека 100.0 %
CRC теста 2E1F2E50
CRC копии 2E1F2E50
Трек не обнаружен в базе AccurateRip
Копирование... OK
Трек  7
Имя файла E:\Раздачи\NNMClub-eloychik ®\Валерия - 5 Альбомов [NNM-Club.to]\2008 - Out Of Control\07 Here I Am.wav
Пиковый уровень 99.7 %
Скорость извлечения 3.6 X
Качество трека 100.0 %
CRC теста 0FE8484D
CRC копии 0FE8484D
Трек не обнаружен в базе AccurateRip
Копирование... OK
Трек  8
Имя файла E:\Раздачи\NNMClub-eloychik ®\Валерия - 5 Альбомов [NNM-Club.to]\2008 - Out Of Control\08 No One.wav
Пиковый уровень 99.0 %
Скорость извлечения 3.8 X
Качество трека 100.0 %
CRC теста 1CCD77FC
CRC копии 1CCD77FC
Трек не обнаружен в базе AccurateRip
Копирование... OK
Трек  9
Имя файла E:\Раздачи\NNMClub-eloychik ®\Валерия - 5 Альбомов [NNM-Club.to]\2008 - Out Of Control\09 Next To You (Featuring Dylan Burns).wav
Пиковый уровень 100.0 %
Скорость извлечения 3.5 X
Качество трека 100.0 %
CRC теста D09E9A6F
CRC копии D09E9A6F
Трек не обнаружен в базе AccurateRip
Копирование... OK
Трек 10
Имя файла E:\Раздачи\NNMClub-eloychik ®\Валерия - 5 Альбомов [NNM-Club.to]\2008 - Out Of Control\10 There I`ll Be.wav
Пиковый уровень 100.0 %
Скорость извлечения 3.9 X
Качество трека 100.0 %
CRC теста A24EF0C4
CRC копии A24EF0C4
Трек не обнаружен в базе AccurateRip
Копирование... OK
Трек 11
Имя файла E:\Раздачи\NNMClub-eloychik ®\Валерия - 5 Альбомов [NNM-Club.to]\2008 - Out Of Control\11 Where Are You.wav
Пиковый уровень 99.8 %
Скорость извлечения 3.8 X
Качество трека 99.9 %
CRC теста 3D721548
CRC копии 3D721548
Трек не обнаружен в базе AccurateRip
Копирование... OK
Трек 12
Имя файла E:\Раздачи\NNMClub-eloychik ®\Валерия - 5 Альбомов [NNM-Club.to]\2008 - Out Of Control\12 Romantic.wav
Пиковый уровень 94.4 %
Скорость извлечения 3.9 X
Качество трека 99.9 %
CRC теста 72E5AFAC
CRC копии 72E5AFAC
Трек не обнаружен в базе AccurateRip
Копирование... OK
Трек 13
Имя файла E:\Раздачи\NNMClub-eloychik ®\Валерия - 5 Альбомов [NNM-Club.to]\2008 - Out Of Control\13 Somehow, Someway.wav
Пиковый уровень 100.0 %
Скорость извлечения 4.2 X
Качество трека 100.0 %
CRC теста 377B4322
CRC копии 377B4322
Трек не обнаружен в базе AccurateRip
Копирование... OK
Трек 14
Имя файла E:\Раздачи\NNMClub-eloychik ®\Валерия - 5 Альбомов [NNM-Club.to]\2008 - Out Of Control\14 Romantic (DJ Vartan & DJ Pasha Portnov Aka Hit DeeJays Remix 2007).wav
Пиковый уровень 100.0 %
Скорость извлечения 4.5 X
Качество трека 100.0 %
CRC теста F3E49A27
CRC копии F3E49A27
Трек не обнаружен в базе AccurateRip
Копирование... OK
Трек 15
Имя файла E:\Раздачи\NNMClub-eloychik ®\Валерия - 5 Альбомов [NNM-Club.to]\2008 - Out Of Control\15 Stayin' Alive - Valeriya And Robin Gibb (Special Bonus Track).wav
Пиковый уровень 100.0 %
Скорость извлечения 4.6 X
Качество трека 100.0 %
CRC теста 6230738F
CRC копии 6230738F
Трек не обнаружен в базе AccurateRip
Копирование... OK
Ни одного трека нет в базе AccurateRip
Ошибок не произошло
Конец отчёта
==== Контрольная сумма отчёта EC46EC33BFAC174BFAF054F52A54C2EDB13A96B68F2838A7F6A98CA72F36C0A2 ====
2010 - Во мне моя любовь
Издание: Astra AUV 0106
Продолжительность - 00:42:28
Треклист:
01. Во мне моя любовь
02. Капелькою
03. Птица-разлука (из телесериала Ефросинья)
04. Кривое зеркало
05. Никто, как ты...
06. Меняемся игрушками
07. По дороге любви
08. Умные девочки не плачут ( дуэт с Еленой Есениной )
09. В твоих глазах не я
10. Волшебный дом
11. Линии руки
12. Капелькою ( Vengerov & Feroroff Remix ) bonus track
Отчёт ЕАС:
Exact Audio Copy V1.3 from 2. September 2016
Отчёт EAC об извлечении, выполненном 16. июля 2019, 21:38
Валерия / Во мне моя любовь
Дисковод: Optiarc DVD RW AD-7240S   Adapter: 1  ID: 1
Режим чтения                 : Достоверность
Использование точного потока : Да
Отключение кэша аудио        : Да
Использование указателей C2  : Нет
Коррекция смещения при чтении                     : 48
Способность читать области Lead-in и Lead-out     : Нет
Заполнение пропущенных сэмплов тишиной            : Да
Удаление блоков с тишиной в начале и конце        : Нет
При вычислениях CRC использовались нулевые сэмплы : Да
Интерфейс                                         : Встроенный Win32-интерфейс для Win NT/2000
Обработка зазоров                                 : Добавлено к предыдущему треку
Выходной формат          : Пользовательский кодировщик
Выбранный битрейт        : 128 kBit/s
Качество                 : Высокий
Добавление ID3-тега      : Нет
Утилита сжатия           : C:\Program Files (x86)\Exact Audio Copy\Flac\flac.exe
Дополнительные параметры : -V -8 -T "Date=%year%" -T "Genre=%genre%" %source%
TOC извлечённого CD
Трек |   Старт  | Длительность | Начальный сектор | Конечный сектор
---------------------------------------------------------------------
1  |  0:00.00 |    3:30.48   |           0      |      15797
2  |  3:30.48 |    3:54.38   |       15798      |      33385
3  |  7:25.11 |    3:19.66   |       33386      |      48376
4  | 10:45.02 |    3:31.57   |       48377      |      64258
5  | 14:16.59 |    3:43.55   |       64259      |      81038
6  | 18:00.39 |    3:31.18   |       81039      |      96881
7  | 21:31.57 |    3:54.57   |       96882      |     114488
8  | 25:26.39 |    3:39.62   |      114489      |     130975
9  | 29:06.26 |    3:54.29   |      130976      |     148554
10  | 33:00.55 |    2:43.24   |      148555      |     160803
11  | 35:44.04 |    3:37.15   |      160804      |     177093
12  | 39:21.19 |    3:06.50   |      177094      |     191093
Трек  1
Имя файла E:\Раздачи\NNMClub-eloychik ®\Валерия - 5 Альбомов [NNM-Club.to]\2010 - Во мне моя любовь\01 Во мне моя любовь.wav
Длина предзазора  0:00:02.00
Пиковый уровень 98.3 %
Скорость извлечения 2.2 X
Качество трека 100.0 %
CRC теста 361F47F6
CRC копии 361F47F6
Точность не определена (достоверность 5)  [B84D6089], AccurateRip вернул [1934695B]  (AR v2)
Копирование... OK
Трек  2
Имя файла E:\Раздачи\NNMClub-eloychik ®\Валерия - 5 Альбомов [NNM-Club.to]\2010 - Во мне моя любовь\02 Капелькою.wav
Пиковый уровень 98.9 %
Скорость извлечения 2.5 X
Качество трека 100.0 %
CRC теста A933999E
CRC копии A933999E
Точность не определена (достоверность 5)  [C2038139], AccurateRip вернул [8122D69F]  (AR v2)
Копирование... OK
Трек  3
Имя файла E:\Раздачи\NNMClub-eloychik ®\Валерия - 5 Альбомов [NNM-Club.to]\2010 - Во мне моя любовь\03 Птица-разлука (из телесериала Ефросинья).wav
Пиковый уровень 97.8 %
Скорость извлечения 2.6 X
Качество трека 100.0 %
CRC теста 136C995A
CRC копии 136C995A
Точность не определена (достоверность 5)  [5A495466], AccurateRip вернул [BE32F95E]  (AR v2)
Копирование... OK
Трек  4
Имя файла E:\Раздачи\NNMClub-eloychik ®\Валерия - 5 Альбомов [NNM-Club.to]\2010 - Во мне моя любовь\04 Кривое зеркало.wav
Пиковый уровень 97.3 %
Скорость извлечения 2.9 X
Качество трека 100.0 %
CRC теста 009FED05
CRC копии 009FED05
Точность не определена (достоверность 5)  [C76BE8E7], AccurateRip вернул [382DAD43]  (AR v2)
Копирование... OK
Трек  5
Имя файла E:\Раздачи\NNMClub-eloychik ®\Валерия - 5 Альбомов [NNM-Club.to]\2010 - Во мне моя любовь\05 Никто, как ты....wav
Пиковый уровень 99.4 %
Скорость извлечения 2.7 X
Качество трека 99.9 %
CRC теста 6E89A377
CRC копии 6E89A377
Точность не определена (достоверность 5)  [9095CDA6], AccurateRip вернул [C4C024E6]  (AR v2)
Копирование... OK
Трек  6
Имя файла E:\Раздачи\NNMClub-eloychik ®\Валерия - 5 Альбомов [NNM-Club.to]\2010 - Во мне моя любовь\06 Меняемся игрушками.wav
Пиковый уровень 99.4 %
Скорость извлечения 3.3 X
Качество трека 100.0 %
CRC теста 7B77E2CC
CRC копии 7B77E2CC
Точность не определена (достоверность 5)  [A90E39B2], AccurateRip вернул [9DF685E4]  (AR v2)
Копирование... OK
Трек  7
Имя файла E:\Раздачи\NNMClub-eloychik ®\Валерия - 5 Альбомов [NNM-Club.to]\2010 - Во мне моя любовь\07 По дороге любви.wav
Пиковый уровень 99.8 %
Скорость извлечения 3.5 X
Качество трека 100.0 %
CRC теста AEE36013
CRC копии AEE36013
Точность не определена (достоверность 5)  [76838A87], AccurateRip вернул [08EDEBC9]  (AR v2)
Копирование... OK
Трек  8
Имя файла E:\Раздачи\NNMClub-eloychik ®\Валерия - 5 Альбомов [NNM-Club.to]\2010 - Во мне моя любовь\08 Умные девочки не плачут ( дуэт с Еленой Есениной ).wav
Пиковый уровень 98.5 %
Скорость извлечения 3.6 X
Качество трека 100.0 %
CRC теста 8F722AEF
CRC копии 8F722AEF
Точность не определена (достоверность 5)  [55A12454], AccurateRip вернул [737CCBB8]  (AR v2)
Копирование... OK
Трек  9
Имя файла E:\Раздачи\NNMClub-eloychik ®\Валерия - 5 Альбомов [NNM-Club.to]\2010 - Во мне моя любовь\09 В твоих глазах не я.wav
Пиковый уровень 100.0 %
Скорость извлечения 3.3 X
Качество трека 99.9 %
CRC теста B4EB7025
CRC копии B4EB7025
Точность не определена (достоверность 5)  [06061B52], AccurateRip вернул [95F4290F]  (AR v2)
Копирование... OK
Трек 10
Имя файла E:\Раздачи\NNMClub-eloychik ®\Валерия - 5 Альбомов [NNM-Club.to]\2010 - Во мне моя любовь\10 Волшебный дом.wav
Пиковый уровень 92.4 %
Скорость извлечения 3.1 X
Качество трека 99.9 %
CRC теста 2D40A880
CRC копии 2D40A880
Точность не определена (достоверность 5)  [461CA378], AccurateRip вернул [FE68F580]  (AR v2)
Копирование... OK
Трек 11
Имя файла E:\Раздачи\NNMClub-eloychik ®\Валерия - 5 Альбомов [NNM-Club.to]\2010 - Во мне моя любовь\11 Линии руки.wav
Пиковый уровень 99.4 %
Скорость извлечения 4.0 X
Качество трека 100.0 %
CRC теста 7E2C0E1F
CRC копии 7E2C0E1F
Точность не определена (достоверность 5)  [5611E5C0], AccurateRip вернул [B5D5B88A]  (AR v2)
Копирование... OK
Трек 12
Имя файла E:\Раздачи\NNMClub-eloychik ®\Валерия - 5 Альбомов [NNM-Club.to]\2010 - Во мне моя любовь\12 Капелькою ( Vengerov & Feroroff Remix ) bonus track.wav
Пиковый уровень 88.0 %
Скорость извлечения 4.0 X
Качество трека 100.0 %
CRC теста 2D9B185E
CRC копии 2D9B185E
Точность не определена (достоверность 5)  [3DA1AFE3], AccurateRip вернул [3E297659]  (AR v2)
Копирование... OK
Ни один трек не прошёл проверки на точность
В вашей базе может быть иной вариант штамповки диска
Ошибок не произошло
Конец отчёта
==== Контрольная сумма отчёта A341B8DE8964BB4D2A3DC2C4524D888CFBF7B3107D5B33DB781BB6243170EEC6 ====
Время раздачи: Пн-Пт с 17:00 до 20:00 и по возможности---
[Профиль] [ЛС]
Показать сообщения:    
Ответить на тему

Текущее время: 24-Окт 03:05

Часовой пояс: UTC + 3



Вы не можете начинать темы
Вы не можете отвечать на сообщения
Вы не можете редактировать свои сообщения
Вы не можете удалять свои сообщения
Вы не можете голосовать в опросах
Вы не можете прикреплять файлы к сообщениям
Вы не можете скачивать файлы