Фитнес / Сезон: 3 / Серии: 1-20 из 20 (Кирилл Васильев) [2020, комедия, WEB-DL 2160p]

Ответить на тему
 
Автор Сообщение

Direktor_49 ®

Стаж: 3 года 10 месяцев

Сообщений: 321

Откуда: Калининград

Создавать темы 14-Сен-2020 13:58

[Цитировать]

Фитнес- Год выпуска: 2020
Производство: Yellow, Black and White
Жанр: комедия
Продолжительность: 20 x ~ 00:24:00
Субтитры: Нет-КиноПоискКино-ТеатрMyShowsIMDb-Режиссёр: Кирилл Васильев
В ролях: Софья Зайка, Светлана Камынина, Илья Глинников, Михаил Трухин, Татьяна Храмова, Роман Курцын, Борис Дергачёв, Екатерина Щербакова, Кристина Юдичева, Марианна Шульц, Ольга Баранова, Евгений Михеев, Дмитрий Чеботарёв, Алексей Демидов, Эвелина Блёданс-Описание: Новая владелица «СуперФита» Бэлла Ринатовна берет управление клубом под жесткий контроль. Бескомпромиссная хозяйка похоронного бюро намерена извлечь из нового бизнеса максимум пользы. Поэтому в клубе стремительно меняются правила, а в зале внезапно появляется боксерский ринг.
Именно на нем Асе Королевой предстоит побороться с Бэллой за судьбу клуба, а, возможно, и за свое будущее. И, похоже, у девушки почти нет шансов победить опытного спарринг-партнера. К счастью, в клубе появляется тренер по боксу, который готов подготовить Асю. Но вспыльчивый характер и поведение раздолбая очень быстро ставят работу тренера под угрозу.-Релиз: karvai
Реклама: Нет
Доп. информация: Источник START (присутствует логотип видеосервиса)
Скачать сэмпл-Качество: WEB-DL 2160p
Формат: MKV
Видео кодек: H.264
Аудио кодек: AAC
Видео: MPEG-4 (AVC), 3840х2160 (16:9), 25 fps, ~ 28.0 Mbps, 0.135 bit/pixel
Аудио: AAC, 48.0 kHz, 2 ch, 256 Kbps-
MediaInfo
General
Unique ID : 295192067357871514405656931962685825073 (0xDE13EC978516C3D414AEBE5192F12031)
Complete name : Фитнес (2018) 2160p/Фитнес (2020) - 3 Сезон - WEB-DL 2160p/Фитнес (2020) - S3E01 - WEB-DL 2160p.mkv
Format : Matroska
Format version : Version 4
File size : 4.70 GiB
Duration : 24 min 5 s
Overall bit rate : 27.9 Mb/s
Encoded date : UTC 2020-08-29 15:26:12
Writing application : mkvmerge v48.0.0 ('Fortress Around Your Heart') 64-bit
Writing library : libebml v1.4.0 + libmatroska v1.6.0
Video
ID : 1
Format : AVC
Format/Info : Advanced Video Codec
Format profile : High@L5.1
Format settings : CABAC / 4 Ref Frames
Format settings, CABAC : Yes
Format settings, Reference frames : 4 frames
Codec ID : V_MPEG4/ISO/AVC
Duration : 24 min 5 s
Bit rate : 28.0 Mb/s
Width : 3 840 pixels
Height : 2 160 pixels
Display aspect ratio : 16:9
Frame rate mode : Constant
Frame rate : 25.000 FPS
Color space : YUV
Chroma subsampling : 4:2:0
Bit depth : 8 bits
Scan type : Progressive
Bits/(Pixel*Frame) : 0.135
Stream size : 4.65 GiB (99%)
Writing library : x264 core 152
Encoding settings : cabac=1 / ref=2 / deblock=1:0:0 / analyse=0x3:0x113 / me=hex / subme=6 / psy=1 / psy_rd=1.00:0.00 / mixed_ref=1 / me_range=16 / chroma_me=1 / trellis=1 / 8x8dct=1 / cqm=0 / deadzone=21,11 / fast_pskip=1 / chroma_qp_offset=-2 / threads=12 / lookahead_threads=2 / sliced_threads=0 / nr=0 / decimate=1 / interlaced=0 / bluray_compat=0 / constrained_intra=0 / bframes=3 / b_pyramid=2 / b_adapt=1 / b_bias=0 / direct=1 / weightb=1 / open_gop=0 / weightp=1 / keyint=120 / keyint_min=24 / scenecut=40 / intra_refresh=0 / rc_lookahead=30 / rc=abr / mbtree=1 / bitrate=28000 / ratetol=1.0 / qcomp=0.60 / qpmin=0 / qpmax=69 / qpstep=4 / vbv_maxrate=33600 / vbv_bufsize=67200 / nal_hrd=none / filler=0 / ip_ratio=1.40 / aq=1:1.00
Default : Yes
Forced : No
Color range : Limited
Color primaries : BT.709
Transfer characteristics : BT.709
Matrix coefficients : BT.709
Audio
ID : 2
Format : AAC LC
Format/Info : Advanced Audio Codec Low Complexity
Codec ID : A_AAC-2
Duration : 24 min 5 s
Bit rate : 258 kb/s
Channel(s) : 2 channels
Channel layout : L R
Sampling rate : 48.0 kHz
Frame rate : 46.875 FPS (1024 SPF)
Compression mode : Lossy
Delay relative to video : -80 ms
Stream size : 44.4 MiB (1%)
Default : Yes
Forced : No
Скриншоты
Сравнение
Сравнение с этой раздачей: https://screenshotcomparison.com/comparison/6293
Доказательство того что это 4К.
[Профиль] [ЛС]
Показать сообщения:    
Ответить на тему

Текущее время: 28-Сен 19:57

Часовой пояс: UTC + 3



Вы не можете начинать темы
Вы не можете отвечать на сообщения
Вы не можете редактировать свои сообщения
Вы не можете удалять свои сообщения
Вы не можете голосовать в опросах
Вы не можете прикреплять файлы к сообщениям
Вы не можете скачивать файлы