(Шансон) [STREAM] Владимир Песня - Коллекция - 2020, FLAC (tracks), lossless

Ответить на тему
 
Автор Сообщение

Direktor_49 ®

Стаж: 3 года 10 месяцев

Сообщений: 312

Откуда: Калининград

Создавать темы 30-Авг-2020 13:08

[Цитировать]


Жанр: Шансон
Носитель: Stream
Год издания: 2020
Страна исполнителя (группы): Россия
Аудиокодек: FLAC (*.flac)
Тип рипа: tracks
Продолжительность: 02:22:30
Источник: Deezer
Наличие сканов в содержимом раздачи: нет
2020 - Дальнобойщик (01:16:35)
01. Дальнобойщик
02. Non Stop
03. Одиночка
04. Всё для тебя
05. Батя
06. Осенний листопад
07. Я счастлив
08. Девочка ветер
09. Давай погуляем
10. Браток
11. Твоё имя
12. Нет лавэ
13. Я не хочу
14. Любимая
15. Но ты
16. Доченька моя
17. Да ты не думай
18. Встреча
19. Любил красиво жить
Замер динамического диапазона (DR)
foobar2000 1.3.19 / Замер динамического диапазона (DR) 1.1.1
Дата отчёта: 2020-08-14 18:09:17
--------------------------------------------------------------------------------
Анализ: Владимир Песня / Дальнобойщик
--------------------------------------------------------------------------------
DR Пики RMS Продолжительность трека
--------------------------------------------------------------------------------
DR6 -0.02 дБ -7.22 дБ 3:55 01-Дальнобойщик
DR5 0.00 дБ -6.30 дБ 3:21 02-Non Stop
DR6 0.00 дБ -8.10 дБ 5:12 03-Одиночка
DR5 0.00 дБ -5.76 дБ 3:54 04-Всё для тебя
DR9 0.00 дБ -10.27 дБ 3:02 05-Батя
DR7 -0.24 дБ -8.01 дБ 4:17 06-Осенний листопад
DR8 -0.02 дБ -9.50 дБ 3:20 07-Я счастлив
DR5 0.00 дБ -6.71 дБ 4:55 08-Девочка ветер
DR6 0.00 дБ -6.74 дБ 4:32 09-Давай погуляем
DR6 -0.05 дБ -7.68 дБ 3:56 10-Браток
DR5 0.00 дБ -6.80 дБ 3:44 11-Твоё имя
DR6 -0.20 дБ -6.54 дБ 3:48 12-Нет лавэ
DR7 -0.02 дБ -7.64 дБ 3:05 13-Я не хочу
DR6 0.00 дБ -7.29 дБ 4:35 14-Любимая
DR6 0.00 дБ -6.70 дБ 3:29 15-Но ты
DR6 -0.20 дБ -7.19 дБ 4:26 16-Доченька моя
DR8 -0.24 дБ -8.86 дБ 4:15 17-Да ты не думай
DR6 -0.20 дБ -6.91 дБ 4:39 18-Встреча
DR7 0.00 дБ -8.20 дБ 4:10 19-Любил красиво жить
--------------------------------------------------------------------------------
Количество треков: 19
Реальные значения DR: DR6
Частота: 44100 Гц
Каналов: 2
Разрядность: 16
Битрейт: 950 кбит/с
Кодек: FLAC
Лог проверки качества
AUDIOCHECKER v2.0 beta (build 457) - by Dester - opdester@freemail.hu
~~~~~~~~~~~~~~~~~~~~~~~~~~~~~~~~~~
-=== DO NOT EDIT THIS FILE! ===-
Path: ...\Дальнобойщик (Album)
01 -=- 01 Дальнобойщик.flac -=- CDDA (100%)
02 -=- 02 Non Stop.flac -=- CDDA (100%)
03 -=- 03 Одиночка.flac -=- CDDA (100%)
04 -=- 04 Всё для тебя.flac -=- CDDA (100%)
05 -=- 05 Батя.flac -=- CDDA (100%)
06 -=- 06 Осенний листопад.flac -=- CDDA (100%)
07 -=- 07 Я счастлив.flac -=- CDDA (100%)
08 -=- 08 Девочка ветер.flac -=- CDDA (100%)
09 -=- 09 Давай погуляем.flac -=- CDDA (100%)
10 -=- 10 Браток.flac -=- CDDA (100%)
11 -=- 11 Твоё имя.flac -=- CDDA (100%)
12 -=- 12 Нет лавэ.flac -=- CDDA (100%)
13 -=- 13 Я не хочу.flac -=- CDDA (100%)
14 -=- 14 Любимая.flac -=- CDDA (99%)
15 -=- 15 Но ты.flac -=- CDDA (100%)
16 -=- 16 Доченька моя.flac -=- CDDA (100%)
17 -=- 17 Да ты не думай.flac -=- CDDA (100%)
18 -=- 18 Встреча.flac -=- CDDA (100%)
19 -=- 19 Любил красиво жить.flac -=- MPEG (95%)
Summary 94,95% CDDA
211630260
Скриншот спектра частот
2020 - Любовь без фальши (01:05:55)
01. Любовь без фальши
02. Обыкновенная
03. Юбилейная
04. Я сигаретку закурю
05. Осень
06. Благодари Бога за весну
07. Спой мне мама
08. Уходят навсегда
09. Если бы не ты
10. Верная
11. Жить в кайф
12. Зима
13. Чужая
14. Люби меня
15. Сыну
16. Жизнь
Замер динамического диапазона (DR)
foobar2000 1.3.19 / Замер динамического диапазона (DR) 1.1.1
Дата отчёта: 2020-08-14 18:10:37
--------------------------------------------------------------------------------
Анализ: Владимир Песня / Любовь без фальши
--------------------------------------------------------------------------------
DR Пики RMS Продолжительность трека
--------------------------------------------------------------------------------
DR6 -0.20 дБ -6.62 дБ 5:41 01-Любовь без фальши
DR6 -0.20 дБ -7.34 дБ 3:37 02-Обыкновенная
DR6 0.00 дБ -7.56 дБ 4:20 03-Юбилейная
DR6 -0.05 дБ -8.08 дБ 3:34 04-Я сигаретку закурю
DR6 0.00 дБ -7.68 дБ 4:11 05-Осень
DR6 -0.20 дБ -7.19 дБ 4:17 06-Благодари Бога за весну
DR8 0.00 дБ -9.30 дБ 4:29 07-Спой мне мама
DR6 -0.05 дБ -7.07 дБ 3:56 08-Уходят навсегда
DR6 -0.20 дБ -6.83 дБ 4:09 09-Если бы не ты
DR6 0.00 дБ -7.32 дБ 4:15 10-Верная
DR5 0.00 дБ -6.23 дБ 3:49 11-Жить в кайф
DR7 0.00 дБ -7.56 дБ 3:56 12-Зима
DR7 -0.16 дБ -7.73 дБ 3:20 13-Чужая
DR5 0.00 дБ -6.50 дБ 4:13 14-Люби меня
DR6 -0.20 дБ -7.74 дБ 4:14 15-Сыну
DR5 -0.20 дБ -6.26 дБ 3:53 16-Жизнь
--------------------------------------------------------------------------------
Количество треков: 16
Реальные значения DR: DR6
Частота: 44100 Гц
Каналов: 2
Разрядность: 16
Битрейт: 1049 кбит/с
Кодек: FLAC
Лог проверки качества
AUDIOCHECKER v2.0 beta (build 457) - by Dester - opdester@freemail.hu
~~~~~~~~~~~~~~~~~~~~~~~~~~~~~~~~~~
-=== DO NOT EDIT THIS FILE! ===-
Path: ...\Любовь без фальши (Album)
01 -=- 01 Любовь без фальши.flac -=- CDDA (100%)
02 -=- 02 Обыкновенная.flac -=- CDDA (99%)
03 -=- 03 Юбилейная.flac -=- CDDA (100%)
04 -=- 04 Я сигаретку закурю.flac -=- CDDA (100%)
05 -=- 05 Осень.flac -=- CDDA (100%)
06 -=- 06 Благодари Бога за весну.flac -=- CDDA (100%)
07 -=- 07 Спой мне мама.flac -=- MPEG (95%)
08 -=- 08 Уходят навсегда.flac -=- CDDA (100%)
09 -=- 09 Если бы не ты.flac -=- CDDA (100%)
10 -=- 10 Верная.flac -=- CDDA (100%)
11 -=- 11 Жить в кайф.flac -=- CDDA (100%)
12 -=- 12 Зима.flac -=- CDDA (100%)
13 -=- 13 Чужая.flac -=- CDDA (100%)
14 -=- 14 Люби меня.flac -=- CDDA (100%)
15 -=- 15 Сыну.flac -=- CDDA (100%)
16 -=- 16 Жизнь.flac -=- CDDA (100%)
Summary 94,00% CDDA
232494212
Скриншот спектра частот
--
[Профиль] [ЛС]
Показать сообщения:    
Ответить на тему

Текущее время: 25-Сен 19:41

Часовой пояс: UTC + 3



Вы не можете начинать темы
Вы не можете отвечать на сообщения
Вы не можете редактировать свои сообщения
Вы не можете удалять свои сообщения
Вы не можете голосовать в опросах
Вы не можете прикреплять файлы к сообщениям
Вы не можете скачивать файлы