Michael Cooper - Love Is Such A Funny Game (1987) [FLAC|Lossless|tracks + .cue] <House, Funk, Soul>

Ответить на тему
 
Автор Сообщение

Direktor_49 ®

Стаж: 3 года 10 месяцев

Сообщений: 310

Откуда: Калининград

Создавать темы 21-Авг-2020 13:14

[Цитировать]

Michael Cooper - Love Is Such A Funny Game (1987) - Жанр: House, Funk, Soul
Издание: Warner Bros. Records - 9 25653-2
Источник: (релизёр:) andrew_kamsky
Продолжительность: 00:42:38
Кодек: FLAC
Битрейт: Lossless
Тип рипа: tracks + .cue
Треклист:
1 To Prove My Love 4:42
2 You've Got A Friend 6:16
3 Dinner For Two 5:48
4 Just Thinkin' Bout Cha 4:29
5 No Other Lover 4:23
6 Oceans Wide 4:45
7 Love Is Such A Funny Game 3:57
8 Quickness 4:02
9 Look Before You Leave 4:14
Отчёт EAC:
Exact Audio Copy V1.1 from 23. June 2015
EAC extraction logfile from 1. September 2017, 5:20
Michael Cooper / Love Is Such a Funny Game
Used drive : ASUS DRW-24B1ST a Adapter: 1 ID: 0
Read mode : Secure
Utilize accurate stream : Yes
Defeat audio cache : Yes
Make use of C2 pointers : No
Read offset correction : 6
Overread into Lead-In and Lead-Out : No
Fill up missing offset samples with silence : Yes
Delete leading and trailing silent blocks : No
Null samples used in CRC calculations : Yes
Used interface : Native Win32 interface for Win NT & 2000
Gap handling : Appended to previous track
Used output format : User Defined Encoder
Selected bitrate : 1024 kBit/s
Quality : High
Add ID3 tag : No
Command line compressor : C:\Program Files (x86)\Exact Audio Copy\FLAC\FLAC.EXE
Additional command line options : -8 -V -T "ARTIST=%artist%" -T "TITLE=%title%" -T "ALBUM=%albumtitle%" -T "DATE=%year%" -T "TRACKNUMBER=%tracknr%" -T "GENRE=%genre%" -T "PERFORMER=%albuminterpret%" -T "COMPOSER=%composer%" %haslyrics%--tag-from-file=LYRICS="%lyricsfile%"%haslyrics% -T "ALBUMARTIST=%albumartist%" -T "DISCNUMBER=%cdnumber%" -T "TOTALDISCS=%totalcds%" -T "TOTALTRACKS=%numtracks%" -T "COMMENT=%comment%" %source% -o %dest%
TOC of the extracted CD
Track | Start | Length | Start sector | End sector
---------------------------------------------------------
1 | 0:00.32 | 4:41.48 | 32 | 21154
2 | 4:42.05 | 6:16.72 | 21155 | 49426
3 | 10:59.02 | 5:48.18 | 49427 | 75544
4 | 16:47.20 | 4:31.17 | 75545 | 95886
5 | 21:18.37 | 4:23.73 | 95887 | 115684
6 | 25:42.35 | 4:47.12 | 115685 | 137221
7 | 30:29.47 | 3:57.70 | 137222 | 155066
8 | 34:27.42 | 4:01.50 | 155067 | 173191
9 | 38:29.17 | 4:14.03 | 173192 | 192244
Track 1
Filename F:\Flac\01 - To Prove My Love.wav
Pre-gap length 0:00:02.42
Peak level 81.0 %
Extraction speed 3.3 X
Track quality 100.0 %
Test CRC 9CC9B7A1
Copy CRC 9CC9B7A1
Accurately ripped (confidence 2) [0593DBE1] (AR v1)
Copy OK
Track 2
Filename F:\Flac\02 - You've Got A Friend.wav
Pre-gap length 0:00:00.33
Peak level 94.1 %
Extraction speed 3.9 X
Track quality 100.0 %
Test CRC 3039B66A
Copy CRC 3039B66A
Accurately ripped (confidence 2) [B7F9A7C9] (AR v1)
Copy OK
Track 3
Filename F:\Flac\03 - Dinner For Two.wav
Pre-gap length 0:00:00.62
Peak level 100.0 %
Extraction speed 3.3 X
Track quality 99.9 %
Test CRC 3F1FD5A7
Copy CRC 3F1FD5A7
Accurately ripped (confidence 2) [D33C64FA] (AR v1)
Copy OK
Track 4
Filename F:\Flac\04 - Just Thinkin' 'Bout Cha.wav
Pre-gap length 0:00:00.33
Peak level 80.8 %
Extraction speed 3.7 X
Track quality 99.9 %
Test CRC 61B4EB58
Copy CRC 61B4EB58
Accurately ripped (confidence 2) [3003762A] (AR v1)
Copy OK
Track 5
Filename F:\Flac\05 - No Other Lover.wav
Pre-gap length 0:00:01.60
Peak level 100.0 %
Extraction speed 4.7 X
Track quality 100.0 %
Test CRC 01EEF4F2
Copy CRC 01EEF4F2
Accurately ripped (confidence 2) [D6CE4BF1] (AR v1)
Copy OK
Track 6
Filename F:\Flac\06 - Oceans Wide.wav
Pre-gap length 0:00:00.33
Peak level 83.7 %
Extraction speed 4.3 X
Track quality 99.9 %
Test CRC F3ABB3E6
Copy CRC F3ABB3E6
Accurately ripped (confidence 2) [01D22298] (AR v1)
Copy OK
Track 7
Filename F:\Flac\07 - Love Is Such A Funny Game.wav
Pre-gap length 0:00:00.33
Peak level 100.0 %
Extraction speed 5.2 X
Track quality 100.0 %
Test CRC 66370D9E
Copy CRC 66370D9E
Accurately ripped (confidence 2) [54CFFE0E] (AR v1)
Copy OK
Track 8
Filename F:\Flac\08 - Quickness.wav
Pre-gap length 0:00:00.33
Peak level 98.4 %
Extraction speed 4.4 X
Track quality 99.9 %
Test CRC 7DC6A880
Copy CRC 7DC6A880
Accurately ripped (confidence 2) [AC7556D8] (AR v1)
Copy OK
Track 9
Filename F:\Flac\09 - Look Before You Leave.wav
Pre-gap length 0:00:00.36
Peak level 98.8 %
Extraction speed 5.6 X
Track quality 100.0 %
Test CRC E8D385AC
Copy CRC E8D385AC
Accurately ripped (confidence 2) [A62EB80A] (AR v1)
Copy OK
All tracks accurately ripped
No errors occurred
End of status report
---- CUETools DB Plugin V2.1.6
[CTDB TOCID: Ir8xRbZ.eg9ITcCQ.1Tu8w6WpMI-] disk not present in database
Submit result: Ir8xRbZ.eg9ITcCQ.1Tu8w6WpMI- has been uploaded
==== Log checksum 7E52DBFDC545A51BA412C5BCAB7B98B64EAAF4DD5E7DA81984662AD59372299C ====
[Профиль] [ЛС]
Показать сообщения:    
Ответить на тему

Текущее время: 25-Сен 18:57

Часовой пояс: UTC + 3



Вы не можете начинать темы
Вы не можете отвечать на сообщения
Вы не можете редактировать свои сообщения
Вы не можете удалять свои сообщения
Вы не можете голосовать в опросах
Вы не можете прикреплять файлы к сообщениям
Вы не можете скачивать файлы