VA - Super Instrumental 25 (Vol. 23-25) (1996) [FLAC|Lossless]<Instrumental>

Ответить на тему
 
Автор Сообщение

Direktor_49 ®

Стаж: 3 года 10 месяцев

Сообщений: 310

Откуда: Калининград

Создавать темы 11-Авг-2020 14:22

[Цитировать]

Год: 1996
Жанр: Instrumental
Продолжительность: 03:38:06
Кодек: FLAC
Битрейт: Lossless-
Super Instrumental Vol.23
Издание: DOG Ent. dog10028
Продолжительность: 01:10:52
Тип рипа: image + .cue
Треклист:
01. Armik - Sailing To Bimini (05:14)
02. The Ventures - Blue Chateau (02:43)
03. Hugo Strasser - Raindrops Keep Falling On My Head (02:30)
04. Boris Zepyr - Fernando (04:25)
05. Richard Clayderman - I Have A Dream (03:08)
06. The Ventures - Love Potion Number Nine (02:07)
07. The Shadows - Theme for Young Lovers (02:39)
08. Shahin & Sepehr - One Thousand & One Nights (Prelude) (00:26)
09. Shahin & Sepehr - One Thousand & One Nights (04:03)
10. Armik - For Annette (04:45)
11. Fausto Papetti - Io Che Non Vivo (02:01)
12. Richard Clayderman - Strangers In The Night (03:16)
13. Boris Zepyr - The Lonely Shepherd (04:20)
14. The Ventures - Hokkaido Skies (02:08)
15. Hugo Strasser - Puttin' On The Ritz (03:05)
16. Fausto Papetti - More (02:19)
17. Richard Clayderman - Feelings (03:16)
18. Nicolas De Angelis / Diego Modena - Implora (03:30)
19. The Shadows - Geronimo (02:22)
20. Lara & Reyes - Cielo Sin Nubes (03:59)
21. Shahin & Sepehr - Tears Of Fire (04:03)
22. Armik - Zingaro (04:33)
На обложке напечатана информация о 21 композиции, на самом деле их 22. Последний трек на оригинальном диске позиционируется как Unknown Artist / Unknown Track. С помощью базы данных VLC трек определяется как Armik - Zingaro.
Отчёт EAC:
Exact Audio Copy V0.99 prebeta 5 from 4. May 2009
Отчёт EAC об извлечении, выполненном 14. апреля 2010, 19:01
Various / Super Instrumental 23
Дисковод: ATAPI   DVD A  DH16A1S   Adapter: 1  ID: 4
Режим чтения                 : Достоверность
Использование точного потока : Да
Отключение кэша аудио        : Да
Использование указателей C2  : Нет
Коррекция смещения при чтении                     : 6
Способность читать области Lead-in и Lead-out     : Нет
Заполнение пропущенных сэмплов тишиной            : Да
Удаление блоков с тишиной в начале и конце        : Нет
При вычислениях CRC использовались нулевые сэмплы : Да
Интерфейс                                         : Установленный внешний ASPI-интерфейс
Выходной формат : Внутренние WAV-операции
Формат сэмплов  : 44.100 Гц; 16 бит; стерео
TOC извлечённого CD
Трек |   Старт  | Длительность | Начальный сектор | Конечный сектор
---------------------------------------------------------------------
1  |  0:00.30 |    5:16.74   |          30      |      23803
2  |  5:17.29 |    2:45.73   |       23804      |      36251
3  |  8:03.27 |    2:32.62   |       36252      |      47713
4  | 10:36.14 |    4:26.27   |       47714      |      67690
5  | 15:02.41 |    3:10.69   |       67691      |      82009
6  | 18:13.35 |    2:07.74   |       82010      |      91608
7  | 20:21.34 |    2:40.68   |       91609      |     103676
8  | 23:02.27 |    0:26.70   |      103677      |     105696
9  | 23:29.22 |    4:04.66   |      105697      |     124062
10  | 27:34.13 |    4:48.25   |      124063      |     145687
11  | 32:22.38 |    2:04.02   |      145688      |     154989
12  | 34:26.40 |    3:19.70   |      154990      |     169984
13  | 37:46.35 |    4:23.31   |      169985      |     189740
14  | 42:09.66 |    2:11.17   |      189741      |     199582
15  | 44:21.08 |    3:06.33   |      199583      |     213565
16  | 47:27.41 |    2:20.71   |      213566      |     224136
17  | 49:48.37 |    3:20.50   |      224137      |     239186
18  | 53:09.12 |    3:34.70   |      239187      |     255306
19  | 56:44.07 |    2:22.27   |      255307      |     265983
20  | 59:06.34 |    3:57.23   |      265984      |     283781
21  | 63:03.57 |    4:02.34   |      283782      |     301965
22  | 67:06.16 |    4:32.60   |      301966      |     322425
Характеристики диапазона извлечения и сообщения об ошибках
Выбранный диапазон
Имя файла C:\Users\Павел\Documents\Various - Super Instrumental 23.wav
Пиковый уровень 100.0 %
Качество диапазона 99.9 %
CRC теста EEE91E70
CRC копии EEE91E70
Копирование... OK
Ошибок не произошло
AccurateRip: сводка
Трек  1  нет в базе данных
Трек  2  нет в базе данных
Трек  3  нет в базе данных
Трек  4  нет в базе данных
Трек  5  нет в базе данных
Трек  6  нет в базе данных
Трек  7  нет в базе данных
Трек  8  нет в базе данных
Трек  9  нет в базе данных
Трек 10  нет в базе данных
Трек 11  нет в базе данных
Трек 12  нет в базе данных
Трек 13  нет в базе данных
Трек 14  нет в базе данных
Трек 15  нет в базе данных
Трек 16  нет в базе данных
Трек 17  нет в базе данных
Трек 18  нет в базе данных
Трек 19  нет в базе данных
Трек 20  нет в базе данных
Трек 21  нет в базе данных
Трек 22  нет в базе данных
Ни одного трека нет в базе AccurateRip
Конец отчёта
Super Instrumental Vol.24 - Super Ventures
Издание: DOG Ent. dog10029
Продолжительность: 01:13:18
Тип рипа: image + .cue
Треклист:
01. Loco Motion (02:16)
02. Pipeline (02:22)
03. Hallelujah (02:11)
04. Vibrations. Single Version (03:05)
05. Harlem Nocturne (03:15)
06. Blue Chateau (02:44)
07. Hokkaido Skies (02:10)
08. The House Of The Rising Sun (03:01)
09. Love Potion Number Nine (02:05)
10. Snoopy vs. The Red Baron (02:14)
11. Caravan (02:50)
12. Limbo Rock (01:55)
13. Ginza Lights (02:07)
14. Mod East (02:29)
15. Night Stick (02:04)
16. Fugitive (02:13)
17. Apache (03:10)
18. Honky Tonk (02:46)
19. Sleep Walk (02:06)
20. Slow Sundown (02:18)
21. Road To Somewhere (Gin-Iro-No-Michi) (02:13)
22. Endless Dream (02:10)
23. Blue Tango (02:40)
24. Rap City (02:03)
25. Diamond Head (02:04)
26. Raunchy (02:19)
27. Detour (01:24)
28. She's Not There (02:37)
29. Bombay Duck (01:58)
30. Walk, Don't Run (02:05)
31. Walk, Don't Run '64 (02:24)
Отчёт EAC:
Exact Audio Copy V0.99 prebeta 5 from 4. May 2009
Отчёт EAC об извлечении, выполненном 17. декабря 2009, 14:04
Ventures / Super Instrumental 24
Дисковод: PLEXTOR DVDR   PX-755A   Adapter: 5  ID: 0
Режим чтения                 : Достоверность
Использование точного потока : Да
Отключение кэша аудио        : Да
Использование указателей C2  : Нет
Комбинированное смещение чтения/записи            : 0
Способность читать области Lead-in и Lead-out     : Нет
Заполнение пропущенных сэмплов тишиной            : Да
Удаление блоков с тишиной в начале и конце        : Нет
При вычислениях CRC использовались нулевые сэмплы : Нет
Интерфейс                                         : Встроенный Win32-интерфейс для Win NT/2000
Выходной формат          : Пользовательский кодировщик
Выбранный битрейт        : 1024 kBit/s
Качество                 : Высокий
Добавление ID3-тэга      : Нет
Утилита сжатия           : C:\Program Files\Exact Audio Copy\FLAC\FLAC.EXE
Дополнительные параметры : -6 -V -T "ARTIST=%a" -T "TITLE=%t" -T "ALBUM=%g" -T "DATE=%y" -T "TRACKNUMBER=%n" -T "GENRE=%m" -T "COMMENT=%e" %s -o %d
TOC извлечённого CD
Трек |   Старт  | Длительность | Начальный сектор | Конечный сектор
---------------------------------------------------------------------
1  |  0:00.00 |    2:18.59   |           0      |      10408
2  |  2:18.59 |    2:24.41   |       10409      |      21249
3  |  4:43.25 |    2:13.19   |       21250      |      31243
4  |  6:56.44 |    3:07.41   |       31244      |      45309
5  | 10:04.10 |    3:17.19   |       45310      |      60103
6  | 13:21.29 |    2:46.72   |       60104      |      72625
7  | 16:08.26 |    2:12.35   |       72626      |      82560
8  | 18:20.61 |    3:03.41   |       82561      |      96326
9  | 21:24.27 |    2:07.36   |       96327      |     105887
10  | 23:31.63 |    2:16.47   |      105888      |     116134
11  | 25:48.35 |    2:53.00   |      116135      |     129109
12  | 28:41.35 |    1:57.12   |      129110      |     137896
13  | 30:38.47 |    2:09.61   |      137897      |     147632
14  | 32:48.33 |    2:31.67   |      147633      |     159024
15  | 35:20.25 |    2:06.55   |      159025      |     168529
16  | 37:27.05 |    2:15.68   |      168530      |     178722
17  | 39:42.73 |    3:12.12   |      178723      |     193134
18  | 42:55.10 |    2:48.64   |      193135      |     205798
19  | 45:43.74 |    2:08.45   |      205799      |     215443
20  | 47:52.44 |    2:20.51   |      215444      |     225994
21  | 50:13.20 |    2:15.02   |      225995      |     236121
22  | 52:28.22 |    2:12.33   |      236122      |     246054
23  | 54:40.55 |    2:42.29   |      246055      |     258233
24  | 57:23.09 |    2:05.14   |      258234      |     267622
25  | 59:28.23 |    2:06.58   |      267623      |     277130
26  | 61:35.06 |    2:21.26   |      277131      |     287731
27  | 63:56.32 |    1:26.02   |      287732      |     294183
28  | 65:22.34 |    2:39.61   |      294184      |     306169
29  | 68:02.20 |    2:00.36   |      306170      |     315205
30  | 70:02.56 |    2:07.06   |      315206      |     324736
31  | 72:09.62 |    2:24.67   |      324737      |     335603
Характеристики диапазона извлечения и сообщения об ошибках
Выбранный диапазон
Имя файла D:\_В РАБОТУ\The Ventures 24\Ventures - Super Instrumental 24.wav
Пиковый уровень 100.0 %
Качество диапазона 100.0 %
CRC теста D663172D
CRC копии D663172D
Копирование... OK
Ошибок не произошло
Конец отчёта
Super Instrumental Vol.25 - Super Tango
Издание: Pelican Records P1131
Продолжительность: 01:13:56
Тип рипа: tracks + .cue
Треклист:
01. Pedro Alvarez - La Cumpersita (02:30)
02. Werner Muller - Hernando's Hideway (02:12)
03. Alfred Hause - Popcorn (02:36)
04. Hugo Strasser - Pariser Tango (02:13)
05. Max Greger - 2 Gitarren (02:53)
06. Mario Battaini - El Choclo (02:08)
07. Alfred Hause - El Condor Pasa (03:04)
08. Werner Muller - Blue Tango (02:40)
09. Pedro Alvarez - La Traviata (03:19)
10. Mario Battaini - A Media Lu (02:40)
11. Werner Muller - Pearl Fishers (03:06)
12. Alfred Hause - The House Of The Rising Sun (02:58)
13. Pedro Alvarez - TLa Paloma (03:23)
14. Werner Muller - Jalousie (03:25)
15. Pablo Nuevo - Para Elisa (03:02)
16. Max Greger - Tango Estrella (02:56)
17. Pedro Alvarez - Caminito (02:21)
18. Werner Muller - Tango Bolero (03:52)
19. Alfred Hause - Mamy Blue (02:26)
20. Pedro Alvarez - I Pescatori Di Perle (03:07)
21. Max Greger - Tango Fernando (02:47)
22. Alfred Hause - Un Canto A Galicia. (02:51)
23. Mario Battaini - Oracion (02:09)
24. Pedro Alvarez - Ole Guapa (03:15)
25. Alfred Hause - Butterfly (02:53)
26. Werner Muller - La Cumparsita (03:10)
Отчёт EAC:
Exact Audio Copy V0.99 prebeta 5 from 4. May 2009
Отчёт EAC об извлечении, выполненном 13. февраля 2010, 11:58
Various / Super Instrumental 25 (Super Tango)
Дисковод: Optiarc DVD RW AD-7203S   Adapter: 0  ID: 1
Режим чтения                 : Достоверность
Использование точного потока : Да
Отключение кэша аудио        : Да
Использование указателей C2  : Нет
Коррекция смещения при чтении                     : 48
Способность читать области Lead-in и Lead-out     : Нет
Заполнение пропущенных сэмплов тишиной            : Да
Удаление блоков с тишиной в начале и конце        : Нет
При вычислениях CRC использовались нулевые сэмплы : Да
Интерфейс                                         : Встроенный Win32-интерфейс для Win NT/2000
Обработка зазоров                                 : Добавлено к предыдущему треку
Выходной формат          : Пользовательский кодировщик
Выбранный битрейт        : 768 kBit/s
Качество                 : Высокий
Добавление ID3-тэга      : Нет
Утилита сжатия           : C:\Program Files (x86)\Exact Audio Copy\FLAC\FLAC.EXE
Дополнительные параметры : -6 -V -T "ARTIST=%a" -T "TITLE=%t" -T "ALBUM=%g" -T "DATE=%y" -T "TRACKNUMBER=%n" -T "GENRE=%m" -T "COMMENT=%e" %s -o %d
TOC извлечённого CD
Трек |   Старт  | Длительность | Начальный сектор | Конечный сектор
---------------------------------------------------------------------
1  |  0:00.30 |    2:30.07   |          30      |      11286
2  |  2:30.37 |    2:12.12   |       11287      |      21198
3  |  4:42.49 |    2:35.44   |       21199      |      32867
4  |  7:18.18 |    2:12.66   |       32868      |      42833
5  |  9:31.09 |    2:53.29   |       42834      |      55837
6  | 12:24.38 |    2:08.08   |       55838      |      65445
7  | 14:32.46 |    3:04.19   |       65446      |      79264
8  | 17:36.65 |    2:39.60   |       79265      |      91249
9  | 20:16.50 |    3:19.00   |       91250      |     106174
10  | 23:35.50 |    2:39.59   |      106175      |     118158
11  | 26:15.34 |    3:06.36   |      118159      |     132144
12  | 29:21.70 |    2:57.38   |      132145      |     145457
13  | 32:19.33 |    3:22.70   |      145458      |     160677
14  | 35:42.28 |    3:24.38   |      160678      |     176015
15  | 39:06.66 |    3:01.54   |      176016      |     189644
16  | 42:08.45 |    2:56.16   |      189645      |     202860
17  | 45:04.61 |    2:21.01   |      202861      |     213436
18  | 47:25.62 |    3:52.33   |      213437      |     230869
19  | 51:18.20 |    2:26.26   |      230870      |     241845
20  | 53:44.46 |    3:06.39   |      241846      |     255834
21  | 56:51.10 |    2:47.10   |      255835      |     268369
22  | 59:38.20 |    2:51.09   |      268370      |     281203
23  | 62:29.29 |    2:08.42   |      281204      |     290845
24  | 64:37.71 |    3:14.71   |      290846      |     305466
25  | 67:52.67 |    2:52.56   |      305467      |     318422
26  | 70:45.48 |    3:10.20   |      318423      |     332692
Трек  1
Имя файла D:\Мама\Музыка\Super Instrumental Collection MP3\Super Instrumental 25 FLAC\01. Track01 - Track01.wav
Длина предзазора  0:00:02.30
Пиковый уровень 50.0 %
Качество трека 99.9 %
CRC теста CECA0CBD
CRC копии CECA0CBD
Трек не обнаружен в базе AccurateRip
Копирование... OK
Трек  2
Имя файла D:\Мама\Музыка\Super Instrumental Collection MP3\Super Instrumental 25 FLAC\02. Track02 - Track02.wav
Пиковый уровень 50.9 %
Качество трека 99.9 %
CRC теста C6C61D81
CRC копии C6C61D81
Трек не обнаружен в базе AccurateRip
Копирование... OK
Трек  3
Имя файла D:\Мама\Музыка\Super Instrumental Collection MP3\Super Instrumental 25 FLAC\03. Track03 - Track03.wav
Пиковый уровень 59.6 %
Качество трека 100.0 %
CRC теста 66C5F451
CRC копии 66C5F451
Трек не обнаружен в базе AccurateRip
Копирование... OK
Трек  4
Имя файла D:\Мама\Музыка\Super Instrumental Collection MP3\Super Instrumental 25 FLAC\04. Track04 - Track04.wav
Пиковый уровень 89.7 %
Качество трека 100.0 %
CRC теста EC249278
CRC копии EC249278
Трек не обнаружен в базе AccurateRip
Копирование... OK
Трек  5
Имя файла D:\Мама\Музыка\Super Instrumental Collection MP3\Super Instrumental 25 FLAC\05. Track05 - Track05.wav
Пиковый уровень 98.1 %
Качество трека 100.0 %
CRC теста 8034C6D9
CRC копии 8034C6D9
Трек не обнаружен в базе AccurateRip
Копирование... OK
Трек  6
Имя файла D:\Мама\Музыка\Super Instrumental Collection MP3\Super Instrumental 25 FLAC\06. Track06 - Track06.wav
Пиковый уровень 73.5 %
Качество трека 100.0 %
CRC теста A0FED684
CRC копии A0FED684
Трек не обнаружен в базе AccurateRip
Копирование... OK
Трек  7
Имя файла D:\Мама\Музыка\Super Instrumental Collection MP3\Super Instrumental 25 FLAC\07. Track07 - Track07.wav
Пиковый уровень 47.9 %
Качество трека 100.0 %
CRC теста B56439B0
CRC копии B56439B0
Трек не обнаружен в базе AccurateRip
Копирование... OK
Трек  8
Имя файла D:\Мама\Музыка\Super Instrumental Collection MP3\Super Instrumental 25 FLAC\08. Track08 - Track08.wav
Пиковый уровень 44.5 %
Качество трека 100.0 %
CRC теста EB51A405
CRC копии EB51A405
Трек не обнаружен в базе AccurateRip
Копирование... OK
Трек  9
Имя файла D:\Мама\Музыка\Super Instrumental Collection MP3\Super Instrumental 25 FLAC\09. Track09 - Track09.wav
Пиковый уровень 57.2 %
Качество трека 100.0 %
CRC теста C4C9203B
CRC копии C4C9203B
Трек не обнаружен в базе AccurateRip
Копирование... OK
Трек 10
Имя файла D:\Мама\Музыка\Super Instrumental Collection MP3\Super Instrumental 25 FLAC\10. Track10 - Track10.wav
Пиковый уровень 68.7 %
Качество трека 100.0 %
CRC теста 62A55399
CRC копии 62A55399
Трек не обнаружен в базе AccurateRip
Копирование... OK
Трек 11
Имя файла D:\Мама\Музыка\Super Instrumental Collection MP3\Super Instrumental 25 FLAC\11. Track11 - Track11.wav
Пиковый уровень 54.0 %
Качество трека 100.0 %
CRC теста 9609AA0C
CRC копии 9609AA0C
Трек не обнаружен в базе AccurateRip
Копирование... OK
Трек 12
Имя файла D:\Мама\Музыка\Super Instrumental Collection MP3\Super Instrumental 25 FLAC\12. Track12 - Track12.wav
Пиковый уровень 51.8 %
Качество трека 100.0 %
CRC теста 37C732DF
CRC копии 37C732DF
Трек не обнаружен в базе AccurateRip
Копирование... OK
Трек 13
Имя файла D:\Мама\Музыка\Super Instrumental Collection MP3\Super Instrumental 25 FLAC\13. Track13 - Track13.wav
Пиковый уровень 53.8 %
Качество трека 100.0 %
CRC теста 2AFF474B
CRC копии 2AFF474B
Трек не обнаружен в базе AccurateRip
Копирование... OK
Трек 14
Имя файла D:\Мама\Музыка\Super Instrumental Collection MP3\Super Instrumental 25 FLAC\14. Track14 - Track14.wav
Пиковый уровень 51.5 %
Качество трека 100.0 %
CRC теста C528A86E
CRC копии C528A86E
Трек не обнаружен в базе AccurateRip
Копирование... OK
Трек 15
Имя файла D:\Мама\Музыка\Super Instrumental Collection MP3\Super Instrumental 25 FLAC\15. Track15 - Track15.wav
Пиковый уровень 50.8 %
Качество трека 100.0 %
CRC теста D44DA282
CRC копии D44DA282
Трек не обнаружен в базе AccurateRip
Копирование... OK
Трек 16
Имя файла D:\Мама\Музыка\Super Instrumental Collection MP3\Super Instrumental 25 FLAC\16. Track16 - Track16.wav
Пиковый уровень 58.4 %
Качество трека 100.0 %
CRC теста 7C3B9048
CRC копии 7C3B9048
Трек не обнаружен в базе AccurateRip
Копирование... OK
Трек 17
Имя файла D:\Мама\Музыка\Super Instrumental Collection MP3\Super Instrumental 25 FLAC\17. Track17 - Track17.wav
Пиковый уровень 40.7 %
Качество трека 100.0 %
CRC теста 3063A526
CRC копии 3063A526
Трек не обнаружен в базе AccurateRip
Копирование... OK
Трек 18
Имя файла D:\Мама\Музыка\Super Instrumental Collection MP3\Super Instrumental 25 FLAC\18. Track18 - Track18.wav
Пиковый уровень 47.4 %
Качество трека 99.9 %
CRC теста 88383D0A
CRC копии 88383D0A
Трек не обнаружен в базе AccurateRip
Копирование... OK
Трек 19
Имя файла D:\Мама\Музыка\Super Instrumental Collection MP3\Super Instrumental 25 FLAC\19. Track19 - Track19.wav
Пиковый уровень 47.8 %
Качество трека 100.0 %
CRC теста 0B08F80C
CRC копии 0B08F80C
Трек не обнаружен в базе AccurateRip
Копирование... OK
Трек 20
Имя файла D:\Мама\Музыка\Super Instrumental Collection MP3\Super Instrumental 25 FLAC\20. Track20 - Track20.wav
Пиковый уровень 40.1 %
Качество трека 100.0 %
CRC теста 5BC9E6C4
CRC копии 5BC9E6C4
Трек не обнаружен в базе AccurateRip
Копирование... OK
Трек 21
Имя файла D:\Мама\Музыка\Super Instrumental Collection MP3\Super Instrumental 25 FLAC\21. Track21 - Track21.wav
Пиковый уровень 55.0 %
Качество трека 100.0 %
CRC теста 474466E4
CRC копии 474466E4
Трек не обнаружен в базе AccurateRip
Копирование... OK
Трек 22
Имя файла D:\Мама\Музыка\Super Instrumental Collection MP3\Super Instrumental 25 FLAC\22. Track22 - Track22.wav
Пиковый уровень 45.6 %
Качество трека 100.0 %
CRC теста 7F8087F1
CRC копии 7F8087F1
Трек не обнаружен в базе AccurateRip
Копирование... OK
Трек 23
Имя файла D:\Мама\Музыка\Super Instrumental Collection MP3\Super Instrumental 25 FLAC\23. Track23 - Track23.wav
Пиковый уровень 80.3 %
Качество трека 100.0 %
CRC теста 6D07C494
CRC копии 6D07C494
Трек не обнаружен в базе AccurateRip
Копирование... OK
Трек 24
Имя файла D:\Мама\Музыка\Super Instrumental Collection MP3\Super Instrumental 25 FLAC\24. Track24 - Track24.wav
Пиковый уровень 49.0 %
Качество трека 99.9 %
CRC теста 501A5173
CRC копии 501A5173
Трек не обнаружен в базе AccurateRip
Копирование... OK
Трек 25
Имя файла D:\Мама\Музыка\Super Instrumental Collection MP3\Super Instrumental 25 FLAC\25. Track25 - Track25.wav
Пиковый уровень 56.1 %
Качество трека 100.0 %
CRC теста 8B2CDE38
CRC копии 8B2CDE38
Трек не обнаружен в базе AccurateRip
Копирование... OK
Трек 26
Имя файла D:\Мама\Музыка\Super Instrumental Collection MP3\Super Instrumental 25 FLAC\26. Track26 - Track26.wav
Пиковый уровень 50.8 %
Качество трека 99.9 %
CRC теста 9F3C0F4D
CRC копии 9F3C0F4D
Трек не обнаружен в базе AccurateRip
Копирование... OK
Ни одного трека нет в базе AccurateRip
Ошибок не произошло
Конец отчёта
Отчёт auCDtect Task Manager:
-----------------------
DON'T MODIFY THIS FILE
-----------------------
PERFORMER: auCDtect Task Manager, ver. 1.5.1RC4 build 1.5.1.5
Copyright (c) 2008-2010 y-soft. All rights reserved
http://y-soft.org
ANALYZER: auCDtect: CD records authenticity detector, version 0.8.2
Copyright (c) 2004 Oleg Berngardt. All rights reserved.
Copyright (c) 2004 Alexander Djourik. All rights reserved.
FILE: 26. Werner Muller - La Cumparsita.flac
Size: 16848228 Hash: BB58AE08331D7E164B475E78024FABA1 Accuracy: -m0
Conclusion: CDDA 100%
Signature: 0414682F042D65D453ADBCEE7B75BA717623365C
FILE: 25. Alfred Hause - Butterfly.flac
Size: 15523137 Hash: 49E6485B90A9B4184C3A29862AF5C190 Accuracy: -m0
Conclusion: CDDA 100%
Signature: 445C5E78F02B8947085A29E09EDB675BACAF5D0D
FILE: 24. Pedro Alvarez - Ole Guapa.flac
Size: 16561833 Hash: AC726270D5FEBF0D4D4E21D984E47EE1 Accuracy: -m0
Conclusion: CDDA 99%
Signature: 09B5A226AB96738372ADF91806200CD95371C8E3
FILE: 23. Mario Battaini - Oracion.flac
Size: 11582449 Hash: CA445DB78DC974EF4821691C329D5104 Accuracy: -m0
Conclusion: CDDA 100%
Signature: FF83F7A21C083D79B36347DF30BB69430835B011
FILE: 22. Alfred Hause - Un Canto A Galicia.flac
Size: 15316626 Hash: 3A77CD061936B6CD2D7818A63E025561 Accuracy: -m0
Conclusion: CDDA 100%
Signature: FA4550CDA6314A773704257BD07E8263DD23BB9D
FILE: 21. Max Greger - Tango Fernando.flac
Size: 15864128 Hash: C4450C6011725C02E33819595EB77E7B Accuracy: -m0
Conclusion: CDDA 99%
Signature: 3B3978F93D153BB3C605C50A9745A650341E3C80
FILE: 20. Pedro Alvarez - I Pescatori Di Perle.flac
Size: 15872718 Hash: F256AF844B807B73FBF6D7733191814C Accuracy: -m0
Conclusion: CDDA 100%
Signature: BC1474281717657992D627B1551D30DB66B55C88
FILE: 19. Alfred Hause - Mamy Blue.flac
Size: 12863616 Hash: AF92B3272E36AA196C78AC5196D30D9D Accuracy: -m0
Conclusion: CDDA 100%
Signature: 08D8A112F453F243238B7DADA06F7356FAA0F4A6
FILE: 18. Werner Muller - Tango Bolero.flac
Size: 22772402 Hash: 3EF348CF43441AA56AFC0437C27DA09E Accuracy: -m0
Conclusion: CDDA 100%
Signature: 2571ABD9A1CB7D93E5BA2143DC0A11F6FDFCEFFC
FILE: 17. Pedro Alvarez - Caminito.flac
Size: 12610922 Hash: 5455B4E2E79A3877125EA25D99890ACA Accuracy: -m0
Conclusion: CDDA 100%
Signature: 95E5E347FC36323F7066E160686BB3A4E72B162F
FILE: 16. Max Greger - Tango Estrella.flac
Size: 16400813 Hash: 54611BE82D977EB72DE7B5F78FC4D848 Accuracy: -m0
Conclusion: CDDA 100%
Signature: DB12991F88BCD3D08BDD1D97AFEF63831FFB0E3F
FILE: 15. Pablo Nuevo - Para Elisa.flac
Size: 16113587 Hash: 8398062C43DC4E6FEA1699A826581835 Accuracy: -m0
Conclusion: CDDA 99%
Signature: C16CEB0A082731F3AE51FDB24067BFC0D0639540
FILE: 14. Werner Muller - Jalousie.flac
Size: 18380734 Hash: 705DDEABF3F7432D0AAD9102CADC452D Accuracy: -m0
Conclusion: CDDA 100%
Signature: 58810390A7D72F3048272B8833530A23E63387C7
FILE: 13. Pedro Alvarez - La Paloma.flac
Size: 17231808 Hash: 5F50211B7D8AC59EBDDBEF63E8F33E23 Accuracy: -m0
Conclusion: CDDA 100%
Signature: D4058A951A8239638EF9CAFE5EF00202945D37BA
FILE: 12. Alfred Hause - The House Of The Rising Sun.flac
Size: 15580683 Hash: 676428107DD84F1FC0BCBC81B5BDBD9E Accuracy: -m0
Conclusion: CDDA 100%
Signature: 1AD851AD75C5B6ECADBEE5490BB40D6F19557F6C
FILE: 11. Werner Muller - Pearl Fishers.flac
Size: 16770829 Hash: 4152F202957A6604E4709CE043AE7535 Accuracy: -m0
Conclusion: CDDA 100%
Signature: BAFC254D72030CD0D5594DEC346E95390A10EE93
FILE: 10. Mario Battaini - A Media Luz.flac
Size: 13584818 Hash: B53045AFBF20E9EC51B3F73065F047A6 Accuracy: -m0
Conclusion: CDDA 100%
Signature: A9A34610614B86F6860C24D52F917B5B34EBA882
FILE: 09. Pedro Alvarez - La Traviata.flac
Size: 17185101 Hash: 9621EDFC90BB5C4C4C7D626B66637CC6 Accuracy: -m0
Conclusion: CDDA 100%
Signature: 5309C7A916AFA0F0314252D34B80F72178658A75
FILE: 08. Werner Muller - Blue Tango.flac
Size: 15410130 Hash: A414BC7B005EAF8BD5697493392A96A1 Accuracy: -m0
Conclusion: CDDA 100%
Signature: 9AA7A9D2AB06EA66AC75D901BE226C98A8A985C3
FILE: 07. Alfred Hause - El Condor Pasa.flac
Size: 16585695 Hash: F2465C1BB3CF6B9FCAF4BCCB515A4CC2 Accuracy: -m0
Conclusion: CDDA 100%
Signature: 768C24569A2EDFF8F625D2AA7174E5EDABBA2D78
FILE: 06. Mario Battaini - El Choclo.flac
Size: 11178141 Hash: 769012CC748DBB998298D741535DC107 Accuracy: -m0
Conclusion: CDDA 100%
Signature: 874622CB4110BE7AB26F3A777BBF8E774A8DA474
FILE: 05. Max Greger - 2 Gitarren.flac
Size: 18955766 Hash: 01AB80390E11CB7A2728F243E4059382 Accuracy: -m0
Conclusion: CDDA 100%
Signature: 0C322536B2AF22A5BDD26B7B22F40596FADF4991
FILE: 04. Hugo Strasser - Pariser Tango.flac
Size: 13587628 Hash: E244CEA4D46352EF56FC9608A0A2D065 Accuracy: -m0
Conclusion: CDDA 100%
Signature: B6595B793DF54194D4D536ECCD0FD108060B5D0E
FILE: 03. Alfred Hause - Popcorn.flac
Size: 14703219 Hash: 918AAD341B16568D58F0EC0DB69AC010 Accuracy: -m0
Conclusion: CDDA 100%
Signature: B16043B9ADA9106F0BE68FF20A382AF762211805
FILE: 02. Werner Muller - Hernando's Hideway.flac
Size: 11602474 Hash: A09E0D85C64576B54A4C48D0E481F016 Accuracy: -m0
Conclusion: CDDA 100%
Signature: F4E4EDD239EE11419397D766CE2D1E76AB84B896
FILE: 01. Pedro Alvarez - La Cumpersita.flac
Size: 13275362 Hash: 70B3A0F641B9DEB860E16209B853F3CB Accuracy: -m0
Conclusion: CDDA 100%
Signature: F18FC76AD6BCC4F2BC97ABC37F867B91D1A5824E
-
Каталог моих раздач посвященных танго
Alfred Hause & His Orchestra - 11 альбомов (1972-2005)
Astor Piazzolla - 3 альбома (4CD) (1994, 2003)
Richard Clayderman - 7 альбомов + 3CD Box (1995, 1996, 2003, 2005 2007)
VA - Super Instrumental 25 (Super Tango) (1996)
VA - Tango Planet – The Best Of Tango (1998)
VA - Ballroom Dance Collection. Tango (2001)
VA - Немецкое танго 30-40-х годов(2002)
VA - Tangos de Amor(2002)
VA - Танго Большого города(2003)
Carlos Gardel - 40 Famous Tangos (2CD)(2005)
Liliana Barrios - Troileana (2007)
VA - La collection Latina Tango (2007)
Daniel Melingo - Maldito Tango(2008)
Albert Assayag - Accordion Dances: Tango Waltz Paso (2009)VA - The Lounge Legends Tango Festival (Vol. 1 & 2) (2010)
Каталог моих раздач посвященных Rock'n'Roll
VA - The Best Of Rock ‘N’ Roll (1973)
VA - Hi-Fi Rock'n'Roll Party (1986)
Little Richard - King Of Rock'n'Roll (1990)
The Crystals - The Best Of (1992)
VA - 100 Rock'n'Roll Hits (4 CD SET) (1992)
VA - The Rock 'N' Roll Era Cruisin' (1992)
VA - Rock'n'Roll Love Songs. Unchained Melody (1997)
Cliff Richard - The Rock 'N' Roll Years (1997)
Stars On 45 - Rock'N'Roll Dance Remixes (1997)
VA - Rock'n'Roll - The Best (1998)
VA - Rock'n'Roll Planet. The Best Rock'n'Roll Music (1998)
VA - Hit Parade Rock'n'roll XX Century (1999)
VA - Nostalgia. Rock 'n' Roll Hits (2000)
Elvis Presley - 2 альбома (5 CD) (2000, 2011)
VA - Nostalgie of 60's. Vol. 1-5 (2001)
VA - Twist Collection (3 CD) (2001)
VA - Rock'n'Roll Party Megamix (2003)
VA - The Best Of Rock&Roll (2006)
VA - 101 Rock 'N' Roll Hits (4CD) (2008)
VA - Золотые хиты рок-н-ролла (2008)
Браво - Лучшее (2CD) (2009)
Elvis Presley - Elvis Remix Collection (2CD BoxSet) (2010)
VA - Rock'n'Roll 1000% (2010)
Chuck Berry - Ultimate Legends (2011)
-Время раздачи: c 17-00 до 5-00 (время Киевское (GMT+02:00))
[Профиль] [ЛС]
Показать сообщения:    
Ответить на тему

Текущее время: 25-Сен 18:38

Часовой пояс: UTC + 3



Вы не можете начинать темы
Вы не можете отвечать на сообщения
Вы не можете редактировать свои сообщения
Вы не можете удалять свои сообщения
Вы не можете голосовать в опросах
Вы не можете прикреплять файлы к сообщениям
Вы не можете скачивать файлы