Курьер (1986) BDRip

Ответить на тему
 
Автор Сообщение

vlad_evp ®

Стаж: 7 лет 4 месяца

Сообщений: 160

Откуда: Керкинитида

Создавать темы 27-Июл-2020 12:13

[Цитировать]

Курьер (1986) - Выпущено: СССР, «Мосфильм»
Год выпуска: 1986
Жанр: драма, мелодрама, комедия
Премьера: июнь 1987
Режиссер: Карен Шахназаров
Актеры:
Федор Дунаевский, Анастасия Немоляева, Олег Басилашвили, Инна Чурикова, Светлана Крючкова, Александр Панкратов-Чёрный, Алла Евдокимова, Эдда Урусова, Владимир Смирнов (III), Владимир Меньшов, Андрей Вертоградов
Описание фильма:
По одноименной повести К. Шахназарова.
Многих поведение юного Ивана шокирует. Многие вызывают у него приступ скепсиса. Но знакомство с новыми людьми заставляет его иначе оценивать свои поступки. Любовь к профессорской дочери не только заводит в тупик их отношения, но и делает Ивана жертвой собственной неискренности.
Лидер проката (1987 год, 6 место)- -Продолжительность: 01:27:20
Качество видео: BDRip
Видеокодек: XviD
Формат: AVI
Битрейт видео: ~1990 kbps avg
Размер кадра: 720x304 (2,35:1)
Аудиокодек: AC3
Битрейт аудио: 48 kHz, AC3 , 6 ch, ~384.00 kbps avg
Знаете ли вы, что…
• Лучший фильм по опросу журнала «Советский экран» в 1988 году.
• Фильм занял 6-ое место в списке лидеров проката в 1987 году.
• У российской рок-группы «Девять» есть песня «Поколение», в которой есть строчка: «Мы хотим знать, в чьи руки попадет возведенное нами здание» (с концертного альбома «Талифа куми»).
• Федора Дунаевского на пробы привела его бывшая одноклассница Анастасия Немоляева.
• Брейк-данс и так называемый робот-данс (стиль брейк-данса), показанный в эпизодах в фильме — первое появление этих танцев на широком экране в СССР.
• На роль Ивана пробовались Дмитрий Певцов, Дмитрий Харатьян, Игорь Верник, Вячеслав Невинный младший.
• На роль Кати пробовались Ирина Апексимова, Марина Зудина, Алена Хмельницкая, Юлия Меньшова, Алика Смехова, Ольга Кабо, Лидия Вележева, Оксана Фандера.
• Поскольку съемки фильма проводились в сложное перестроечное время, съемочная группа не могла подобрать реквизит для героини Анастасии Немоляевой - модную и элегантную одежду. Поэтому актриса носила одежду жены Карена Шахназарова.
Награды и Номинации
1987 — Лучший фильм года по опросу журнала «Советский Экран».
1987 — один из лидеров проката в СССР (6-е место — 31,9 млн зрителей).
1987 — Приз FIPRESCI и Специальный приз жюри , МКФ в Москве.
1988 — Государственная премия РСФСР имени братьев Васильевых.
1988 — Ника, номинация за лучшую музыку.
MediaInfo:
Формат                                   : AVI
Формат/Информация                        : Audio Video Interleave
Размер файла                             : 1,45 Гбайт
Продолжительность                        : 1 ч. 27 м.
Общий поток                              : 2383 Кбит/сек
Программа кодирования                    : VirtualDubMod 1.5.10.3
Примечание                               : 27.07.2011
Видео
Идентификатор                            : 0
Формат                                   : MPEG-4 Visual
Профиль формата                          : Advanced Simple@L5
Параметр BVOP формата                    : 1
Параметр QPel формата                    : Нет
Параметр GMC формата                     : Без точки перехода
Параметр матрицы формата                 : Выборочная
Идентификатор кодека                     : XVID
Идентификатор кодека/Подсказка           : XviD
Продолжительность                        : 1 ч. 27 м.
Битрейт                                  : 1990 Кбит/сек
Ширина                                   : 720 пикселей
Высота                                   : 304 пикселя
Соотношение сторон                       : 2,35:1
Частота кадров                           : 23,976 кадра/сек
Цветовое пространство                    : YUV
Субдискретизация насыщенности            : 4:2:0
Битовая глубина                          : 8 бит
Тип развёртки                            : Прогрессивная
Метод сжатия                             : С потерями
Бит/(Пиксели*Кадры)                      : 0.379
Размер потока                            : 1,21 Гбайт (83%)
Библиотека кодирования                   : XviD 63
Аудио
Идентификатор                            : 1
Формат                                   : AC-3
Формат/Информация                        : Audio Coding 3
Расширение режима                        : CM (complete main)
Параметр Endianness формата              : Big
Идентификатор кодека                     : 2000
Продолжительность                        : 1 ч. 27 м.
Вид битрейта                             : Постоянный
Битрейт                                  : 384 Кбит/сек
Каналы                                   : 6 каналов
Расположение каналов                     : Front: L C R, Side: L R, LFE
Частота                                  : 48,0 КГц
Битовая глубина                          : 16 бит
Метод сжатия                             : С потерями
Размер потока                            : 240 Мбайт (16%)
Выравнивание                             : Разделение по промежуткам
Продолжительность промежутка             : 42  мс. (1,00 видеокадр)
Время предзагрузки промежутка            : 500  мс.
Скриншоты:

[Профиль] [ЛС]
Показать сообщения:    
Ответить на тему

Текущее время: 27-Сен 10:13

Часовой пояс: UTC + 3



Вы не можете начинать темы
Вы не можете отвечать на сообщения
Вы не можете редактировать свои сообщения
Вы не можете удалять свои сообщения
Вы не можете голосовать в опросах
Вы не можете прикреплять файлы к сообщениям
Вы не можете скачивать файлы