Глотай / Swallow (Карло Мирабелла-Дэйвис) [2019, Триллер, драма, BDRip 1080p] Dub (iTunes) + Original + Sub (Rus/Eng)

Ответить на тему
 
Автор Сообщение

Kon912 ®

Стаж: 6 месяцев 4 дня

Сообщений: 379

Откуда: ПИТЕР

Создавать темы 26-Июл-2020 23:52

[Цитировать]

Глотай / Swallow- Год выхода: 2019
Страна: Франция, США
Студия: Charades, Logical Pictures, Stand Alone Productions, Syncopated Films
Жанр: Триллер, драма
Продолжительность: 01:35:15
Перевод: Дублированный | iTunes-Режиссер:
Карло Мирабелла-Дэйвис-В ролях:
Хейли Беннетт, Остин Стоуэлл, Дэнис О’Хэр, Элизабет Марвел, Дэвид Раш, Луна Лорен Велес, Забрина Гевара, Лэйт Накли, Бабак Тафти, Николь Кан-О фильме:
У молодой домохозяйки Хантер вроде бы всё хорошо - прекрасный дом, богатый муж, на работу ходить не нужно. Но когда женщина беременеет, и семейство окружает её удушающей заботой, она вдруг начинает находить странное утешение в глотании всяких неподходящих для этого предметов.- -Качество: BDRip 1080p
Формат: MKV
Видео: MPEG-4 AVC, 1920x804, 14.6 Mbit/s, 23.976 fps
Аудио #01: 48 kHz, AC3, 5.1, 384 Kbps | iTunes | RUS |
Аудио #02: 48 kHz, AC3, 5.1, 640 Kbps | Оригинал | ENG |
Субтитры: Русские (Full), английские-
Скриншоты
MI
General
Unique ID : 24878177133207277640234215241763095452 (0x12B75CD556391F3498E1DA4DD265839C)
Complete name : E:Video111Swallow.2019.BDRip.1080p.seleZen.mkv
Format : Matroska
Format version : Version 4
File size : 10.4 GiB
Duration : 1 h 35 min
Overall bit rate : 15.6 Mb/s
Movie name : Swallow 2019 from селезень
Encoded date : UTC 2020-07-24 22:24:47
Writing application : mkvmerge v40.0.0 ('Old Town Road + Pony') 64-bit
Writing library : libebml v1.3.9 + libmatroska v1.5.2
Video
ID : 1
Format : AVC
Format/Info : Advanced Video Codec
Format profile : High@L4.1
Format settings : CABAC / 5 Ref Frames
Format settings, CABAC : Yes
Format settings, Reference : 5 frames
Codec ID : V_MPEG4/ISO/AVC
Duration : 1 h 35 min
Bit rate : 14.6 Mb/s
Width : 1 920 pixels
Height : 804 pixels
Display aspect ratio : 2.40:1
Frame rate mode : Constant
Frame rate : 23.976 (24000/1001) FPS
Color space : YUV
Chroma subsampling : 4:2:0
Bit depth : 8 bits
Scan type : Progressive
Bits/(Pixel*Frame) : 0.394
Stream size : 9.71 GiB (93%)
Title : MTeam
Writing library : x264 core 157 r2938 2b00a84 TnP@MTeam Mod
Encoding settings : cabac=1 / ref=5 / deblock=1:-3:-3 / analyse=0x3:0x133 / me=umh / subme=10 / psy=1 / psy_rd=1.05:0.00 / mixed_ref=1 / me_range=32 / chroma_me=1 / trellis=2 / 8x8dct=1 / cqm=0 / deadzone=21,11 / fast_pskip=0 / chroma_qp_offset=-2 / threads=12 / lookahead_threads=2 / sliced_threads=0 / nr=0 / decimate=0 / interlaced=0 / bluray_compat=0 / constrained_intra=0 / bframes=8 / b_pyramid=2 / b_adapt=2 / b_bias=0 / direct=3 / weightb=1 / open_gop=0 / weightp=2 / keyint=250 / keyint_min=24 / scenecut=40 / intra_refresh=0 / rc_lookahead=250 / rc=crf / mbtree=0 / crf=16.8 / qcomp=0.60 / qpmin=0 / qpmax=69 / qpstep=4 / vbv_maxrate=62500 / vbv_bufsize=78125 / crf_max=0.0 / nal_hrd=none / filler=0 / ip_ratio=1.30 / pb_ratio=1.20 / aq=3:0.80
Language : English
Default : Yes
Forced : No
Color range : Limited
Color primaries : BT.709
Matrix coefficients : BT.709
Audio #1
ID : 2
Format : AC-3
Format/Info : Audio Coding 3
Commercial name : Dolby Digital
Codec ID : A_AC3
Duration : 1 h 35 min
Bit rate mode : Constant
Bit rate : 384 kb/s
Channel(s) : 6 channels
Channel layout : L R C LFE Ls Rs
Sampling rate : 48.0 kHz
Frame rate : 31.250 FPS (1536 SPF)
Compression mode : Lossy
Stream size : 262 MiB (2%)
Title : iTunes
Language : Russian
Service kind : Complete Main
Default : Yes
Forced : Yes
Audio #2
ID : 3
Format : AC-3
Format/Info : Audio Coding 3
Commercial name : Dolby Digital
Codec ID : A_AC3
Duration : 1 h 35 min
Bit rate mode : Constant
Bit rate : 640 kb/s
Channel(s) : 6 channels
Channel layout : L R C LFE Ls Rs
Sampling rate : 48.0 kHz
Frame rate : 31.250 FPS (1536 SPF)
Compression mode : Lossy
Stream size : 436 MiB (4%)
Title : Original
Language : English
Service kind : Complete Main
Default : No
Forced : No
Text #1
ID : 4
Format : UTF-8
Codec ID : S_TEXT/UTF8
Codec ID/Info : UTF-8 Plain Text
Duration : 1 h 25 min
Bit rate : 55 b/s
Count of elements : 1024
Stream size : 34.9 KiB (0%)
Title : Full
Language : Russian
Default : No
Forced : No
Text #2
ID : 5
Format : UTF-8
Codec ID : S_TEXT/UTF8
Codec ID/Info : UTF-8 Plain Text
Duration : 1 h 31 min
Bit rate : 37 b/s
Count of elements : 942
Stream size : 25.3 KiB (0%)
Title : Full
Language : English
Default : No
Forced : No
Text #3
ID : 6
Format : UTF-8
Codec ID : S_TEXT/UTF8
Codec ID/Info : UTF-8 Plain Text
Duration : 1 h 34 min
Bit rate : 40 b/s
Count of elements : 1113
Stream size : 27.7 KiB (0%)
Title : SDH
Language : English
Default : No
Forced : No
Menu
00:00:00.000 : en:Chapter 01
00:07:38.333 : en:Chapter 02
00:15:57.498 : en:Chapter 03
00:21:35.794 : en:Chapter 04
00:29:09.748 : en:Chapter 05
00:36:35.235 : en:Chapter 06
00:45:46.410 : en:Chapter 07
00:55:39.545 : en:Chapter 08
01:03:59.586 : en:Chapter 09
01:10:50.079 : en:Chapter 10
01:18:37.004 : en:Chapter 11
01:29:34.703 : en:Chapter 12
Релиз от:
[Профиль] [ЛС]
Показать сообщения:    
Ответить на тему

Текущее время: 05-Дек 01:45

Часовой пояс: UTC + 3



Вы не можете начинать темы
Вы не можете отвечать на сообщения
Вы не можете редактировать свои сообщения
Вы не можете удалять свои сообщения
Вы не можете голосовать в опросах
Вы не можете прикреплять файлы к сообщениям
Вы не можете скачивать файлы