Олимпиада-80. Церемония открытия (1980) TVRip

Ответить на тему
 
Автор Сообщение

vlad_evp ®

Стаж: 7 лет 5 месяцев

Сообщений: 179

Откуда: Керкинитида

Создавать темы 21-Июл-2020 10:27

[Цитировать]

Олимпиада-80. Церемония открытия (1980) -
Телекомпания: Гл. редакции информации ЦТ СССР
Год выпуска: 1980
Жанр: Документальный
Описание:
Церемония открытия XXII летних Олимпийских игр в Москве в 1980 году: виды праздничной Москвы, украшенной олимпийской символикой, эстафета олимпийского огня на улицах города, парад спортивных делегаций - стран-участников Олимпиады-80 и фрагменты театрализовнного представления на Большой спортивной арене стадиона в Лужниках.

Продолжительность: 01:26:21
Видеокодек: DivX 5
Битрейт видео: ~1395 Кбит/сек
Размер кадра: 720x528
Качество видео: TVRip
Аудиокодек: MP3, 2ch
Битрейт аудио: 224 Кбит/сек
MediaInfo:
Общее
Полное имя                               : J:\nF\!5 Кинолетопись страны Советской\Олимпиада-80. Церемония открытия\Олимпиада-80. Церемония открытия (1980) TVRip.avi
Формат                                   : AVI
Формат/Информация                        : Audio Video Interleave
Размер файла                             : 1011 Мбайт
Продолжительность                        : 1 ч. 26 м.
Режим общего битрейта                    : Переменный
Общий поток                              : 1637 Кбит/сек
Видео
Идентификатор                            : 0
Формат                                   : MPEG-4 Visual
Параметр BVOP формата                    : 1
Параметр QPel формата                    : Нет
Параметр GMC формата                     : Без точки перехода
Параметр матрицы формата                 : Default (H.263)
Режим смешивания                         : Сжатый битовый поток
Идентификатор кодека                     : DX50
Идентификатор кодека/Подсказка           : DivX 5
Продолжительность                        : 1 ч. 26 м.
Битрейт                                  : 1395 Кбит/сек
Ширина                                   : 720 пикселей
Высота                                   : 528 пикселей
Соотношение сторон                       : 4:3
Частота кадров                           : 25,000 кадров/сек
Цветовое пространство                    : YUV
Субдискретизация насыщенности            : 4:2:0
Битовая глубина                          : 8 бит
Тип развёртки                            : Прогрессивная
Метод сжатия                             : С потерями
Бит/(Пиксели*Кадры)                      : 0.147
Размер потока                            : 862 Мбайт (85%)
Заголовок                                : Video
Библиотека кодирования                   : DivX 5.2.1 Alpha (UTC 2004-09-08)
Аудио
Идентификатор                            : 1
Формат                                   : MPEG Audio
Версия формата                           : Version 1
Профиль формата                          : Layer 3
Режим                                    : Joint stereo
Идентификатор кодека                     : 55
Идентификатор кодека/Подсказка           : MP3
Продолжительность                        : 1 ч. 26 м.
Вид битрейта                             : Переменный
Битрейт                                  : 224 Кбит/сек
Каналы                                   : 2 канала
Частота                                  : 48,0 КГц
Метод сжатия                             : С потерями
Размер потока                            : 141 Мбайт (14%)
Выравнивание                             : Соединение по промежуткам
Продолжительность промежутка             : 24  мс. (0,60 видеокадр)
Время предзагрузки промежутка            : 147  мс.
Заголовок                                : Audio
Библиотека кодирования                   : LAME3.92

[Профиль] [ЛС]
Показать сообщения:    
Ответить на тему

Текущее время: 19-Окт 19:17

Часовой пояс: UTC + 3



Вы не можете начинать темы
Вы не можете отвечать на сообщения
Вы не можете редактировать свои сообщения
Вы не можете удалять свои сообщения
Вы не можете голосовать в опросах
Вы не можете прикреплять файлы к сообщениям
Вы не можете скачивать файлы