Королевские каникулы / Trouble (Кевин Джонсон) [2019, Мультфильм, комедия, семейный, BDRemux 1080p] Dub (iTunes) + Original + Sub (Rus/Eng)

Ответить на тему
 
Автор Сообщение

Kon912 ®

Стаж: 1 месяц 7 дней

Сообщений: 290

Откуда: ПИТЕР

Создавать темы 27-Июн-2020 22:47

[Цитировать]

Королевские каникулы / Trouble- Год выхода: 2019
Страна: Канада, США, Каймановы острова
Студия: 3QU Media, Cinesite Animation, Vanguard Animation
Жанр: Мультфильм, комедия, семейный
Продолжительность: 01:27:40
Перевод: Дублированный | iTunes-Режиссер:
Кевин Джонсон-В ролях:
Биг Шон, Памела Адлон, Люси Хейл, Марисса Джэрет Винокур, Джоэл МакХэйл, Уилмер Вальдеррама, Сет Роллинз, Ди Брэдли Бэйкер, Кевин Чэмберлин, Лудо Лефевр-О фильме:
Наследник миллионного состояния и кучки неблагодарных родственников, его псиятельство Принц вышел из зоны комфорта и оказался на улице. Теперь он мечтает вернуться домой. Для этого ему нужно найти новых друзей, избавиться от назойливых белок и сбросить с хвоста матерого охотника. Королевские каникулы начинаются.- -Качество: BDRemux 1080p
Формат: MKV
Видео: MPEG-4 AVC, 1920x1080, 22.6 Mbit/s, 24.000 fps
Аудио #01: 48 kHz, AC3, 5.1, 384 Kbps | iTunes | RUS |
Аудио #02: 48 kHz, DTS-HD MA, 5.1, 1978 Kbps | Оригинал | ENG |
Субтитры: Нет-
Скриншоты
MI
General
Unique ID : 330190060718373357891708715806782854820 (0xF8684AE317A979B1DAADB57DC92B16A4)
Complete name : E:Video111Trouble.2019.BDREMUX.1080p.seleZen.mkv
Format : Matroska
Format version : Version 4
File size : 15.3 GiB
Duration : 1 h 27 min
Overall bit rate mode : Variable
Overall bit rate : 25.0 Mb/s
Movie name : Trouble 2019 from селезень
Encoded date : UTC 2020-04-10 15:00:27
Writing application : mkvmerge v40.0.0 ('Old Town Road + Pony') 64-bit
Writing library : libebml v1.3.9 + libmatroska v1.5.2
Video
ID : 1
Format : AVC
Format/Info : Advanced Video Codec
Format profile : High@L4.1
Format settings : CABAC / 4 Ref Frames
Format settings, CABAC : Yes
Format settings, Reference : 4 frames
Codec ID : V_MPEG4/ISO/AVC
Duration : 1 h 27 min
Bit rate mode : Variable
Bit rate : 22.6 Mb/s
Maximum bit rate : 30.0 Mb/s
Width : 1 920 pixels
Height : 1 080 pixels
Display aspect ratio : 16:9
Frame rate mode : Constant
Frame rate : 24.000 FPS
Standard : NTSC
Color space : YUV
Chroma subsampling : 4:2:0
Bit depth : 8 bits
Scan type : Progressive
Bits/(Pixel*Frame) : 0.454
Stream size : 13.8 GiB (91%)
Language : English
Default : Yes
Forced : No
Color range : Limited
Color primaries : BT.709
Transfer characteristics : BT.709
Matrix coefficients : BT.709
Audio #1
ID : 2
Format : AC-3
Format/Info : Audio Coding 3
Commercial name : Dolby Digital
Codec ID : A_AC3
Duration : 1 h 27 min
Bit rate mode : Constant
Bit rate : 384 kb/s
Channel(s) : 6 channels
Channel layout : L R C LFE Ls Rs
Sampling rate : 48.0 kHz
Frame rate : 31.250 FPS (1536 SPF)
Compression mode : Lossy
Stream size : 240 MiB (2%)
Title : iTunes
Language : Russian
Service kind : Complete Main
Default : Yes
Forced : Yes
Audio #2
ID : 3
Format : DTS XLL
Format/Info : Digital Theater Systems
Commercial name : DTS-HD Master Audio
Codec ID : A_DTS
Duration : 1 h 27 min
Bit rate mode : Variable
Bit rate : 1 978 kb/s
Channel(s) : 6 channels
Channel layout : C L R Ls Rs LFE
Sampling rate : 48.0 kHz
Frame rate : 93.750 FPS (512 SPF)
Bit depth : 16 bits
Compression mode : Lossless
Stream size : 1.21 GiB (8%)
Title : Original
Language : English
Default : No
Forced : No
Menu
00:00:00.000 : en:Chapter 01
00:12:11.250 : en:Chapter 02
00:23:03.292 : en:Chapter 03
00:30:35.542 : en:Chapter 04
00:43:59.792 : en:Chapter 05
00:54:18.958 : en:Chapter 06
01:06:18.000 : en:Chapter 07
01:18:34.583 : en:Chapter 08
Релиз от:
[Профиль] [ЛС]
Показать сообщения:    
Ответить на тему

Текущее время: 07-Июл 22:23

Часовой пояс: UTC + 4



Вы не можете начинать темы
Вы не можете отвечать на сообщения
Вы не можете редактировать свои сообщения
Вы не можете удалять свои сообщения
Вы не можете голосовать в опросах
Вы не можете прикреплять файлы к сообщениям
Вы не можете скачивать файлы