Четыре танкиста и собака / Czterej pancerni i pies (1966-1970) WEB-DLRip (сезон 1-3, серии 1-21 из 21)

Ответить на тему
 
Автор Сообщение

vlad_evp ®

Стаж: 7 лет 2 месяца

Сообщений: 114

Откуда: Керкинитида

Создавать темы 23-Июн-2020 14:09

[Цитировать]

Четыре танкиста и собака / Czterej pancerni i pies (1966-1970)
(сезон 1-3, серии 1-21 из 21)
-
Производство: Польша / Zespol Filmowy "Syrena", Zespol Filmowy "Nike"
Жанр: приключения, военный
Режиссер: Анджей Цекальски / Andrzej Czekalski, Конрад Налески / Konrad Nalecki
В ролях: Януш Гайос, Франчишек Печка, Влодзимеж Пресс, Молгожата Нимирская, Витольд Пыркош, Поля Ракса, Веслав Голас, Тадеуш Калиновский, Януш Клосиньский, Роман Вильгельми, Александр Белявский, Ежи Турек, Мечислав Чехович, Мечислав Чехович, Веслав Михниковский, Александр Севрук, Stanislaw Gronkowski, Анджей Хердер, Барбара Крафтувна, Мариан Опаня, Тадеуш Фиевский, Станислав Ясюкевич, Кшиштоф Литвин, Роман Сыкала, Казимеж Талярчик, Томаш Заливский, Мечислав Стоор, Жигмунт Кенстович, Рышард Котыс, Юзеф Нальберчак, Петр Высоцкий, Кшиштоф Хамец, Роман Клосовски, Юзеф Новак, Joanna Sobieska, Здзислав Карчевский, Анна Лютославска, Войцех Семён, Зигмунт Зинтель, Джоэнна Лоте, Януш Павлушкевич, Ежи Смык, Элиаш Куземский, Артур Млодницкий, Барбара Рахвальска, Ханна Скаржанка, Хенрик Клюба, Ядвига Анджеевская, Збигнев Кочанович, Ян Павел Крук, Чеслав Пясковский, Ивона Слочиньска, Эугениуш Каминьский, Зигмунт Хубнер, Анджей Красицкий, Леон Немчик, Леон Петрашкевич, Кристина Колодзейчик, Здзислав Лесьняк, Михал Газда, Михал Налески, Януш Пшимановский, Витольд Скарух ...
Описание: Фильм рассказывает о военной судьбе танкистов из 1-й Варшавской танковой бригады имени героев Вестерплатте 1-й армии Войска Польского, их танка Т-34 с идентификационным номером 102, названного экипажем — «Рыжий» (польск. «Rudy») в честь одной из главных героинь — русской девушки Маруси по прозвищу «Огонёк», и немецкой овчарки по кличке Шарик (польск. «Szarik»). Действие фильма начинается в Сибири, а заканчивается в освобожденной Польше. Янек, Густлик, Гжесь, Томаш, Ольгерд, а также их фронтовые товарищи, попадая в различные сложные ситуации, с честью выходят из них, неизменно демонстрируя зрителям упорство, смелость, умение сражаться, высокие моральные принципы и добрый дружеский юмор. Огромную популярность фильм приобрел в СССР под названием «Четыре танкиста и собака» («народное» название «Три поляка, грузин и собака»), в ГДР под названием «Vier Panzerfahrer und ein Hund», а также в других странах Варшавского договора.
-Дополнительная информация:

Возраст: 6+ (зрителям, достигшим 6 лет)-Продолжительность: ~00:53:00 серия
Качество видео: WEB-DLRip
Перевод: Многоголосый закадровый, профессиональный - OPT
Субтитры: русские (отдельным файлом)
Видео: Xvid, 720x544 (4:3), ~1900 Kbps
Аудио #1: AC3, 2 ch, 192 Kbps - русский, многоголосый закадровый
Аудио #2: AC3, 2 ch, 192 Kbps - польский
Mediainfo:
Общее
Полное имя                               : G:\Czterej Рancerni I Рies (1966-1970)\01. Экипаж (Załoga).avi
Формат                                   : AVI
Формат/Информация                        : Audio Video Interleave
Размер файла                             : 881 Мбайт
Продолжительность                        : 53 м. 28 с.
Общий поток                              : 2304 Кбит/сек
Программа кодирования                    : Lavf57.71.100
Примечание                               : Rip by Basma4i&TorrNADO
Видео
Идентификатор                            : 0
Формат                                   : MPEG-4 Visual
Профиль формата                          : Advanced Simple@L5
Параметр BVOP формата                    : Нет
Параметр QPel формата                    : Нет
Параметр GMC формата                     : Без точки перехода
Параметр матрицы формата                 : Default (H.263)
Идентификатор кодека                     : XVID
Идентификатор кодека/Подсказка           : XviD
Продолжительность                        : 53 м. 28 с.
Битрейт                                  : 1903 Кбит/сек
Ширина                                   : 720 пикселей
Высота                                   : 544 пикселя
Соотношение сторон                       : 4:3
Частота кадров                           : 25,000 кадров/сек
Цветовое пространство                    : YUV
Субдискретизация насыщенности            : 4:2:0
Битовая глубина                          : 8 бит
Тип развёртки                            : Прогрессивная
Метод сжатия                             : С потерями
Бит/(Пиксели*Кадры)                      : 0.194
Размер потока                            : 728 Мбайт (83%)
Библиотека кодирования                   : XviD 67
Аудио #1
Идентификатор                            : 1
Формат                                   : AC-3
Формат/Информация                        : Audio Coding 3
Коммерческое название                    : Dolby Digital
Идентификатор кодека                     : 2000
Продолжительность                        : 53 м. 28 с.
Вид битрейта                             : Постоянный
Битрейт                                  : 192 Кбит/сек
Каналы                                   : 2 канала
Channel layout                           : L R
Частота                                  : 48,0 КГц
Частота кадров                           : 31,250 кадров/сек (1536 SPF)
Битовая глубина                          : 16 бит
Метод сжатия                             : С потерями
Размер потока                            : 73,4 Мбайт (8%)
Выравнивание                             : Соединение по промежуткам
Продолжительность промежутка             : 32  мс. (0,80 видеокадр)
Заголовок                                : Rus
ServiceKind/String                       : Complete Main
Аудио #2
Идентификатор                            : 2
Формат                                   : AC-3
Формат/Информация                        : Audio Coding 3
Коммерческое название                    : Dolby Digital
Идентификатор кодека                     : 2000
Продолжительность                        : 53 м. 28 с.
Вид битрейта                             : Постоянный
Битрейт                                  : 192 Кбит/сек
Каналы                                   : 2 канала
Channel layout                           : L R
Частота                                  : 48,0 КГц
Частота кадров                           : 31,250 кадров/сек (1536 SPF)
Битовая глубина                          : 16 бит
Метод сжатия                             : С потерями
Размер потока                            : 73,4 Мбайт (8%)
Выравнивание                             : Соединение по промежуткам
Продолжительность промежутка             : 32  мс. (0,80 видеокадр)
Заголовок                                : Pol
ServiceKind/String                       : Complete Main
"Список серий:

Первый сезон (1966)
01. Экипаж (Załoga)
02. Радость и горе (Radość i gorycz)
03. Где мы — там граница (Gdzie my - tam granica)
04. Собачий коготь (Psi pazur)
05. Рыжий, мёд и награда (Rudy, miód i krzyże)
06. Мост (Most)
07. На перепутье (Rozstajne drogi)
08. Берег моря (Brzeg morza)

Второй сезон (1969)
09. Замена (польск. Zamiana)
10. На пятнадцатой минуте после нечетного часа (Kwadrans po nieparzystej)
11. Военный сев (Wojenny siew)
12. Форт Ольгерд (Fort Olgierd)
13. Пари со смертью (Zakład o śmierć)
14. Над шлюзом (Czerwona seria)
15. Высокая волна (Wysoka fala)

Третий сезон (1970)
16. Дальний дозор (Daleki patrol»)
17. Клин (Klin)
18. Кольца (Pierścienie)
19. Тиргартен (Tiergarten)
20. Ворота (Brama)
21. Дом (Dom)



[Профиль] [ЛС]
Показать сообщения:    
Ответить на тему

Текущее время: 07-Июл 23:39

Часовой пояс: UTC + 4



Вы не можете начинать темы
Вы не можете отвечать на сообщения
Вы не можете редактировать свои сообщения
Вы не можете удалять свои сообщения
Вы не можете голосовать в опросах
Вы не можете прикреплять файлы к сообщениям
Вы не можете скачивать файлы