(Pop) [CD] VA - 69 Hits Summer 2017 - 2017, FLAC (tracks+.cue), lossless

Ответить на тему
 
Автор Сообщение

Direktor_49 ®

Стаж: 3 года 9 месяцев

Сообщений: 253

Откуда: Калининград

Создавать темы 17-Июн-2020 21:46

[Цитировать]

69 Hits Summer 2017
Жанр: Pop
Носитель: CD
Страна-производитель диска (релиза): EU
Год издания: 2017
Издатель (лейбл): Sony Music
Номер по каталогу: 88985445072
Страна исполнителя (группы): International45072
Аудиокодек: FLAC (*.flac)
Тип рипа: tracks+.cue
Продолжительность: 03:47:15
Источник: Nafta Music
Наличие сканов в содержимом раздачи: да
Корректность рипа: В оригинале не было применено сжатие при конвертировании во Флак (FLAC Level 0). Для приведения в соответствие правилам пережато во FLAC Level 5 с сохранением тэгов
CD1 - 01:19:57
01 - Rag'n'Bone Man - Skin (00:03:59)
02 - Kygo & Selena Gomez - It Ain't Me (00:03:40)
03 - Future - Mask Off (00:03:25)
04 - Loic Nottet - Million Eyes (00:04:12)
05 - Jax Jones Feat. Raye - You Don't Know Me (00:03:33)
06 - Ofenbach - Be Mine (00:02:41)
07 - Train - Play That Song (00:04:02)
08 - Russ - What They Want (00:02:45)
09 - Jillionaire, Fuse ODG & Fatman Scoop - Sunrise (00:03:21)
10 - John Legend - Love Me Now (00:03:30)
11 - Jain - Heads Up (00:03:32)
12 - Broken Back - Halcyon Bird (00:03:18)
13 - Malo’ - I Believed (00:04:00)
14 - Little Mix - Touch (00:03:33)
15 - JP Cooper - September Song (00:03:41)
16 - Milky Chance - Cocoon (00:03:45)
17 - Jonas Blue Feat. Raye - By Your Side (00:03:20)
18 - LUDE Feat. Polina - The Good Ones (00:03:05)
19 - Trinix Feat. Hannah Young - Ocean Hill (00:03:21)
20 - Kungs Feat. Ephemerals - I Feel so Bad (00:03:26)
21 - Sound Of Legend - Sweet (La La La) (00:02:58)
22 - TYDIAZ - Claro De Luna (00:03:21)
23 - Kamaleon - Mas (00:03:28)
Лог создания рипа
Exact Audio Copy V1.5 from 20. February 2020
EAC extraction logfile from 9. June 2020, 19:37
Various Artists / 69 Hits Summer 2017
Used drive : PLEXTOR PX-891SAF PLUS Adapter: 1 ID: 0
Read mode : Secure
Utilize accurate stream : Yes
Defeat audio cache : Yes
Make use of C2 pointers : No
Read offset correction : 6
Overread into Lead-In and Lead-Out : No
Fill up missing offset samples with silence : Yes
Delete leading and trailing silent blocks : No
Null samples used in CRC calculations : Yes
Used interface : Native Win32 interface for Win NT & 2000
Gap handling : Appended to previous track
Used output format : User Defined Encoder
Selected bitrate : 1024 kBit/s
Quality : High
Add ID3 tag : No
Command line compressor : C:\Program Files (x86)\Exact Audio Copy\Flac\flac.exe
Additional command line options : -0 -V -T "ARTIST=%artist%" -T "TITLE=%title%" -T "ALBUM=%albumtitle%" -T "DATE=%year%" -T "TRACKNUMBER=%tracknr%" -T "TOTALTRACKS=%numtracks%" -T "GENRE=%genre%" -T "COMMENT=Naftamusic Release!" %source%
TOC of the extracted CD
Track | Start | Length | Start sector | End sector
---------------------------------------------------------
1 | 0:00.00 | 3:59.10 | 0 | 17934
2 | 3:59.10 | 3:39.39 | 17935 | 34398
3 | 7:38.49 | 3:24.63 | 34399 | 49761
4 | 11:03.37 | 4:12.05 | 49762 | 68666
5 | 15:15.42 | 3:32.59 | 68667 | 84625
6 | 18:48.26 | 2:41.14 | 84626 | 96714
7 | 21:29.40 | 4:01.56 | 96715 | 114845
8 | 25:31.21 | 2:45.12 | 114846 | 127232
9 | 28:16.33 | 3:21.20 | 127233 | 142327
10 | 31:37.53 | 3:30.21 | 142328 | 158098
11 | 35:07.74 | 3:32.31 | 158099 | 174029
12 | 38:40.30 | 3:18.25 | 174030 | 188904
13 | 41:58.55 | 3:59.59 | 188905 | 206888
14 | 45:58.39 | 3:33.23 | 206889 | 222886
15 | 49:31.62 | 3:40.70 | 222887 | 239456
16 | 53:12.57 | 3:45.24 | 239457 | 256355
17 | 56:58.06 | 3:19.46 | 256356 | 271326
18 | 60:17.52 | 3:05.37 | 271327 | 285238
19 | 63:23.14 | 3:20.51 | 285239 | 300289
20 | 66:43.65 | 3:26.17 | 300290 | 315756
21 | 70:10.07 | 2:58.24 | 315757 | 329130
22 | 73:08.31 | 3:20.55 | 329131 | 344185
23 | 76:29.11 | 3:27.40 | 344186 | 359750
Track 1
Filename E:\Nafta Releases\VA - 69 Hits Summer 2017 (3 CD 2017)[FLAC] - Naftamusic\CD 1\01 - Rag'n'Bone Man - Skin.wav
Pre-gap length 0:00:02.00
Peak level 100.0 %
Extraction speed 3.0 X
Track quality 100.0 %
Test CRC DA67661D
Copy CRC DA67661D
Track not present in AccurateRip database
Copy OK
Track 2
Filename E:\Nafta Releases\VA - 69 Hits Summer 2017 (3 CD 2017)[FLAC] - Naftamusic\CD 1\02 - Kygo & Selena Gomez - It Ain't Me.wav
Peak level 99.9 %
Extraction speed 3.3 X
Track quality 100.0 %
Test CRC 4816E052
Copy CRC 4816E052
Track not present in AccurateRip database
Copy OK
Track 3
Filename E:\Nafta Releases\VA - 69 Hits Summer 2017 (3 CD 2017)[FLAC] - Naftamusic\CD 1\03 - Future - Mask Off.wav
Peak level 100.0 %
Extraction speed 2.6 X
Track quality 99.9 %
Test CRC D2A36376
Copy CRC D2A36376
Track not present in AccurateRip database
Copy OK
Track 4
Filename E:\Nafta Releases\VA - 69 Hits Summer 2017 (3 CD 2017)[FLAC] - Naftamusic\CD 1\04 - Loïc Nottet - Million Eyes.wav
Peak level 99.9 %
Extraction speed 3.8 X
Track quality 100.0 %
Test CRC 4C7E1EE1
Copy CRC 4C7E1EE1
Track not present in AccurateRip database
Copy OK
Track 5
Filename E:\Nafta Releases\VA - 69 Hits Summer 2017 (3 CD 2017)[FLAC] - Naftamusic\CD 1\05 - Jax Jones Feat. Raye - You Don't Know Me.wav
Peak level 99.9 %
Extraction speed 3.0 X
Track quality 99.9 %
Test CRC E29DDBFF
Copy CRC E29DDBFF
Track not present in AccurateRip database
Copy OK
Track 6
Filename E:\Nafta Releases\VA - 69 Hits Summer 2017 (3 CD 2017)[FLAC] - Naftamusic\CD 1\06 - Ofenbach - Be Mine.wav
Peak level 99.9 %
Extraction speed 3.8 X
Track quality 100.0 %
Test CRC FD39E20F
Copy CRC FD39E20F
Track not present in AccurateRip database
Copy OK
Track 7
Filename E:\Nafta Releases\VA - 69 Hits Summer 2017 (3 CD 2017)[FLAC] - Naftamusic\CD 1\07 - Train - Play That Song.wav
Peak level 91.0 %
Extraction speed 4.2 X
Track quality 100.0 %
Test CRC 6A0E1C3F
Copy CRC 6A0E1C3F
Track not present in AccurateRip database
Copy OK
Track 8
Filename E:\Nafta Releases\VA - 69 Hits Summer 2017 (3 CD 2017)[FLAC] - Naftamusic\CD 1\08 - Russ - What They Want.wav
Peak level 97.9 %
Extraction speed 4.1 X
Track quality 100.0 %
Test CRC 550B1CAF
Copy CRC 550B1CAF
Track not present in AccurateRip database
Copy OK
Track 9
Filename E:\Nafta Releases\VA - 69 Hits Summer 2017 (3 CD 2017)[FLAC] - Naftamusic\CD 1\09 - Jillionaire, Fuse ODG & Fatman Scoop - Sunrise.wav
Peak level 100.0 %
Extraction speed 4.4 X
Track quality 100.0 %
Test CRC 213F59E8
Copy CRC 213F59E8
Track not present in AccurateRip database
Copy OK
Track 10
Filename E:\Nafta Releases\VA - 69 Hits Summer 2017 (3 CD 2017)[FLAC] - Naftamusic\CD 1\10 - John Legend - Love Me Now.wav
Peak level 100.0 %
Extraction speed 4.6 X
Track quality 100.0 %
Test CRC CAE19D6F
Copy CRC CAE19D6F
Track not present in AccurateRip database
Copy OK
Track 11
Filename E:\Nafta Releases\VA - 69 Hits Summer 2017 (3 CD 2017)[FLAC] - Naftamusic\CD 1\11 - Jain - Heads Up.wav
Peak level 99.9 %
Extraction speed 4.7 X
Track quality 100.0 %
Test CRC 1523EB1F
Copy CRC 1523EB1F
Track not present in AccurateRip database
Copy OK
Track 12
Filename E:\Nafta Releases\VA - 69 Hits Summer 2017 (3 CD 2017)[FLAC] - Naftamusic\CD 1\12 - Broken Back - Halcyon Bird.wav
Peak level 99.9 %
Extraction speed 4.8 X
Track quality 100.0 %
Test CRC 6B10113E
Copy CRC 6B10113E
Track not present in AccurateRip database
Copy OK
Track 13
Filename E:\Nafta Releases\VA - 69 Hits Summer 2017 (3 CD 2017)[FLAC] - Naftamusic\CD 1\13 - Malo’ - I Believed.wav
Peak level 98.8 %
Extraction speed 5.0 X
Track quality 100.0 %
Test CRC 82E7F842
Copy CRC 82E7F842
Track not present in AccurateRip database
Copy OK
Track 14
Filename E:\Nafta Releases\VA - 69 Hits Summer 2017 (3 CD 2017)[FLAC] - Naftamusic\CD 1\14 - Little Mix - Touch.wav
Peak level 99.9 %
Extraction speed 5.1 X
Track quality 100.0 %
Test CRC 33C0FD5C
Copy CRC 33C0FD5C
Track not present in AccurateRip database
Copy OK
Track 15
Filename E:\Nafta Releases\VA - 69 Hits Summer 2017 (3 CD 2017)[FLAC] - Naftamusic\CD 1\15 - JP Cooper - September Song.wav
Peak level 100.0 %
Extraction speed 5.2 X
Track quality 100.0 %
Test CRC A57A6EB1
Copy CRC A57A6EB1
Track not present in AccurateRip database
Copy OK
Track 16
Filename E:\Nafta Releases\VA - 69 Hits Summer 2017 (3 CD 2017)[FLAC] - Naftamusic\CD 1\16 - Milky Chance - Cocoon.wav
Peak level 99.9 %
Extraction speed 5.4 X
Track quality 100.0 %
Test CRC 3D32987F
Copy CRC 3D32987F
Track not present in AccurateRip database
Copy OK
Track 17
Filename E:\Nafta Releases\VA - 69 Hits Summer 2017 (3 CD 2017)[FLAC] - Naftamusic\CD 1\17 - Jonas Blue Feat. Raye - By Your Side.wav
Peak level 99.9 %
Extraction speed 5.4 X
Track quality 100.0 %
Test CRC 04072001
Copy CRC 04072001
Track not present in AccurateRip database
Copy OK
Track 18
Filename E:\Nafta Releases\VA - 69 Hits Summer 2017 (3 CD 2017)[FLAC] - Naftamusic\CD 1\18 - LUDE Feat. Polina - The Good Ones.wav
Peak level 99.9 %
Extraction speed 5.5 X
Track quality 100.0 %
Test CRC 6F2D0CBD
Copy CRC 6F2D0CBD
Track not present in AccurateRip database
Copy OK
Track 19
Filename E:\Nafta Releases\VA - 69 Hits Summer 2017 (3 CD 2017)[FLAC] - Naftamusic\CD 1\19 - Trinix Feat. Hannah Young - Ocean Hill.wav
Peak level 100.0 %
Extraction speed 5.6 X
Track quality 100.0 %
Test CRC 0E9B0D72
Copy CRC 0E9B0D72
Track not present in AccurateRip database
Copy OK
Track 20
Filename E:\Nafta Releases\VA - 69 Hits Summer 2017 (3 CD 2017)[FLAC] - Naftamusic\CD 1\20 - Kungs Feat. Ephemerals - I Feel so Bad.wav
Pre-gap length 0:00:01.04
Peak level 99.9 %
Extraction speed 5.7 X
Track quality 100.0 %
Test CRC DBEE2012
Copy CRC DBEE2012
Track not present in AccurateRip database
Copy OK
Track 21
Filename E:\Nafta Releases\VA - 69 Hits Summer 2017 (3 CD 2017)[FLAC] - Naftamusic\CD 1\21 - Sound Of Legend - Sweet (La La La).wav
Peak level 99.9 %
Extraction speed 5.6 X
Track quality 100.0 %
Test CRC 3C13BDBC
Copy CRC 3C13BDBC
Track not present in AccurateRip database
Copy OK
Track 22
Filename E:\Nafta Releases\VA - 69 Hits Summer 2017 (3 CD 2017)[FLAC] - Naftamusic\CD 1\22 - TYDIAZ - Claro De Luna.wav
Peak level 99.9 %
Extraction speed 5.9 X
Track quality 100.0 %
Test CRC 8D28F41B
Copy CRC 8D28F41B
Track not present in AccurateRip database
Copy OK
Track 23
Filename E:\Nafta Releases\VA - 69 Hits Summer 2017 (3 CD 2017)[FLAC] - Naftamusic\CD 1\23 - Kamaleon - Mas.wav
Peak level 99.9 %
Extraction speed 5.9 X
Track quality 100.0 %
Test CRC 7E470632
Copy CRC 7E470632
Track not present in AccurateRip database
Copy OK
None of the tracks are present in the AccurateRip database
No errors occurred
End of status report
==== Log checksum 7B7202332FC81C03FE0B5FB1488DCEF54EA2B3516FC179662A40D4F229219A65 ====
Содержание индексной карты (.CUE)
REM GENRE Pop
REM DATE 2017
REM DISCID 3B12BC17
REM COMMENT "ExactAudioCopy v1.5"
PERFORMER "Various Artists"
TITLE "69 Hits Summer 2017"
REM COMPOSER ""
FILE "01 - Rag'n'Bone Man - Skin.wav" WAVE
TRACK 01 AUDIO
TITLE "Skin"
PERFORMER "Rag'n'Bone Man"
REM COMPOSER ""
FLAGS DCP
INDEX 01 00:00:00
FILE "02 - Kygo & Selena Gomez - It Ain't Me.wav" WAVE
TRACK 02 AUDIO
TITLE "It Ain't Me"
PERFORMER "Kygo & Selena Gomez"
REM COMPOSER ""
FLAGS DCP
INDEX 01 00:00:00
FILE "03 - Future - Mask Off.wav" WAVE
TRACK 03 AUDIO
TITLE "Mask Off"
PERFORMER "Future"
REM COMPOSER ""
FLAGS DCP
INDEX 01 00:00:00
FILE "04 - Loic Nottet - Million Eyes.wav" WAVE
TRACK 04 AUDIO
TITLE "Million Eyes"
PERFORMER "Loic Nottet"
REM COMPOSER ""
FLAGS DCP
INDEX 01 00:00:00
FILE "05 - Jax Jones Feat. Raye - You Don't Know Me.wav" WAVE
TRACK 05 AUDIO
TITLE "You Don't Know Me"
PERFORMER "Jax Jones Feat. Raye"
REM COMPOSER ""
FLAGS DCP
INDEX 01 00:00:00
FILE "06 - Ofenbach - Be Mine.wav" WAVE
TRACK 06 AUDIO
TITLE "Be Mine"
PERFORMER "Ofenbach"
REM COMPOSER ""
FLAGS DCP
INDEX 01 00:00:00
FILE "07 - Train - Play That Song.wav" WAVE
TRACK 07 AUDIO
TITLE "Play That Song"
PERFORMER "Train"
REM COMPOSER ""
FLAGS DCP
INDEX 01 00:00:00
FILE "08 - Russ - What They Want.wav" WAVE
TRACK 08 AUDIO
TITLE "What They Want"
PERFORMER "Russ"
REM COMPOSER ""
FLAGS DCP
INDEX 01 00:00:00
FILE "09 - Jillionaire, Fuse ODG & Fatman Scoop - Sunrise.wav" WAVE
TRACK 09 AUDIO
TITLE "Sunrise"
PERFORMER "Jillionaire, Fuse ODG & Fatman Scoop"
REM COMPOSER ""
FLAGS DCP
INDEX 01 00:00:00
FILE "10 - John Legend - Love Me Now.wav" WAVE
TRACK 10 AUDIO
TITLE "Love Me Now"
PERFORMER "John Legend"
REM COMPOSER ""
FLAGS DCP
INDEX 01 00:00:00
FILE "11 - Jain - Heads Up.wav" WAVE
TRACK 11 AUDIO
TITLE "Heads Up"
PERFORMER "Jain"
REM COMPOSER ""
FLAGS DCP
INDEX 01 00:00:00
FILE "12 - Broken Back - Halcyon Bird.wav" WAVE
TRACK 12 AUDIO
TITLE "Halcyon Bird"
PERFORMER "Broken Back"
REM COMPOSER ""
FLAGS DCP
INDEX 01 00:00:00
FILE "13 - Malo’ - I Believed.wav" WAVE
TRACK 13 AUDIO
TITLE "I Believed"
PERFORMER "Malo’"
REM COMPOSER ""
FLAGS DCP
INDEX 01 00:00:00
FILE "14 - Little Mix - Touch.wav" WAVE
TRACK 14 AUDIO
TITLE "Touch"
PERFORMER "Little Mix"
REM COMPOSER ""
FLAGS DCP
INDEX 01 00:00:00
FILE "15 - JP Cooper - September Song.wav" WAVE
TRACK 15 AUDIO
TITLE "September Song"
PERFORMER "JP Cooper"
REM COMPOSER ""
FLAGS DCP
INDEX 01 00:00:00
FILE "16 - Milky Chance - Cocoon.wav" WAVE
TRACK 16 AUDIO
TITLE "Cocoon"
PERFORMER "Milky Chance"
REM COMPOSER ""
FLAGS DCP
INDEX 01 00:00:00
FILE "17 - Jonas Blue Feat. Raye - By Your Side.wav" WAVE
TRACK 17 AUDIO
TITLE "By Your Side"
PERFORMER "Jonas Blue Feat. Raye"
REM COMPOSER ""
FLAGS DCP
INDEX 01 00:00:00
FILE "18 - LUDE Feat. Polina - The Good Ones.wav" WAVE
TRACK 18 AUDIO
TITLE "The Good Ones"
PERFORMER "LUDE Feat. Polina"
REM COMPOSER ""
FLAGS DCP
INDEX 01 00:00:00
FILE "19 - Trinix Feat. Hannah Young - Ocean Hill.wav" WAVE
TRACK 19 AUDIO
TITLE "Ocean Hill"
PERFORMER "Trinix Feat. Hannah Young"
REM COMPOSER ""
FLAGS DCP
INDEX 01 00:00:00
TRACK 20 AUDIO
TITLE "I Feel so Bad"
PERFORMER "Kungs Feat. Ephemerals"
REM COMPOSER ""
FLAGS DCP
INDEX 00 03:19:47
FILE "20 - Kungs Feat. Ephemerals - I Feel so Bad.wav" WAVE
INDEX 01 00:00:00
FILE "21 - Sound Of Legend - Sweet (La La La).wav" WAVE
TRACK 21 AUDIO
TITLE "Sweet (La La La)"
PERFORMER "Sound Of Legend"
REM COMPOSER ""
FLAGS DCP
INDEX 01 00:00:00
FILE "22 - TYDIAZ - Claro De Luna.wav" WAVE
TRACK 22 AUDIO
TITLE "Claro De Luna"
PERFORMER "TYDIAZ"
REM COMPOSER ""
FLAGS DCP
INDEX 01 00:00:00
FILE "23 - Kamaleon - Mas.wav" WAVE
TRACK 23 AUDIO
TITLE "Mas"
PERFORMER "Kamaleon"
REM COMPOSER ""
FLAGS DCP
INDEX 01 00:00:00
CD2 - 01:12:32
01 - Black M feat. Shakira - Comme moi (00:03:08)
02 - Maitre Gims Ft. Dany Synthe Et Sofly & Nius - Loin (00:03:08)
03 - Singuila - Ay Mama (00:03:17)
04 - Willy William - Voodoo Song (00:03:15)
05 - Cris Cab Ft. J. Balvin - Turn Out The Light (00:02:59)
06 - Ridsa - Avancer (00:03:35)
07 - Tibz - Nation (00:03:06)
08 - Lea Castel & Slimane - Abimee (00:03:28)
09 - Nassi - La Vie Est Belle (00:03:18)
10 - Vitaa - Peine & Pitie (00:02:51)
11 - Amir - Au Coeur De Moi (00:03:08)
12 - David Carreira - Domino (00:03:11)
13 - Vianney - Je M'En Vais (00:03:16)
14 - Boulevard Des Airs & Le Bagad De Lann-Bihoue - Le Bagad De Lann-Bihoue (00:03:47)
15 - Muli Artistes - Une Belle Histoire (00:02:49)
16 - Hoshi - Comment Je Vais Faire (00:03:55)
17 - Nevada Ft. Mark Morrison & Fetty Wap - The Mack (00:02:48)
18 - Don Diablo - Cutting Shapes (00:03:00)
19 - Bamby Ft. Jahyanai King - Real Wifey (00:02:45)
20 - Deorro Ft. Dycy - Goin Up (00:02:44)
21 - W&w - Caribbean Rave (00:02:33)
22 - Kshmr & Crossnaders Ft. Micky Blue - Back To Me (00:03:00)
23 - Pagadixx Ft. Adixia - Heaven (00:03:31)
Лог создания рипа
Exact Audio Copy V1.5 from 20. February 2020
EAC extraction logfile from 9. June 2020, 20:34
Various Artists / 69 Hits Summer 2017
Used drive : PLEXTOR PX-891SAF PLUS Adapter: 1 ID: 0
Read mode : Secure
Utilize accurate stream : Yes
Defeat audio cache : Yes
Make use of C2 pointers : No
Read offset correction : 6
Overread into Lead-In and Lead-Out : No
Fill up missing offset samples with silence : Yes
Delete leading and trailing silent blocks : No
Null samples used in CRC calculations : Yes
Used interface : Native Win32 interface for Win NT & 2000
Gap handling : Appended to previous track
Used output format : User Defined Encoder
Selected bitrate : 1024 kBit/s
Quality : High
Add ID3 tag : No
Command line compressor : C:\Program Files (x86)\Exact Audio Copy\Flac\flac.exe
Additional command line options : -0 -V -T "ARTIST=%artist%" -T "TITLE=%title%" -T "ALBUM=%albumtitle%" -T "DATE=%year%" -T "TRACKNUMBER=%tracknr%" -T "TOTALTRACKS=%numtracks%" -T "GENRE=%genre%" -T "COMMENT=Naftamusic Release!" %source%
TOC of the extracted CD
Track | Start | Length | Start sector | End sector
---------------------------------------------------------
1 | 0:00.00 | 3:08.16 | 0 | 14115
2 | 3:08.16 | 3:07.74 | 14116 | 28214
3 | 6:16.15 | 3:17.12 | 28215 | 43001
4 | 9:33.27 | 3:15.19 | 43002 | 57645
5 | 12:48.46 | 2:59.13 | 57646 | 71083
6 | 15:47.59 | 3:34.64 | 71084 | 87197
7 | 19:22.48 | 3:06.17 | 87198 | 101164
8 | 22:28.65 | 3:27.67 | 101165 | 116756
9 | 25:56.57 | 3:18.05 | 116757 | 131611
10 | 29:14.62 | 2:51.11 | 131612 | 144447
11 | 32:05.73 | 3:07.54 | 144448 | 158526
12 | 35:13.52 | 3:10.53 | 158527 | 172829
13 | 38:24.30 | 3:16.35 | 172830 | 187564
14 | 41:40.65 | 3:46.43 | 187565 | 204557
15 | 45:27.33 | 2:49.05 | 204558 | 217237
16 | 48:16.38 | 3:54.66 | 217238 | 234853
17 | 52:11.29 | 2:47.47 | 234854 | 247425
18 | 54:59.01 | 3:00.33 | 247426 | 260958
19 | 57:59.34 | 2:45.35 | 260959 | 273368
20 | 60:44.69 | 2:43.52 | 273369 | 285645
21 | 63:28.46 | 2:32.59 | 285646 | 297104
22 | 66:01.30 | 3:00.06 | 297105 | 310610
23 | 69:01.36 | 3:30.46 | 310611 | 326406
Track 1
Filename E:\Nafta Releases\VA - 69 Hits Summer 2017 (3 CD 2017)[FLAC] - Naftamusic\CD 2\01 - Black M feat. Shakira - Comme moi.wav
Pre-gap length 0:00:02.00
Peak level 99.9 %
Extraction speed 2.2 X
Track quality 99.9 %
Test CRC B756A628
Copy CRC B756A628
Track not present in AccurateRip database
Copy OK
Track 2
Filename E:\Nafta Releases\VA - 69 Hits Summer 2017 (3 CD 2017)[FLAC] - Naftamusic\CD 2\02 - Maitre Gims Ft. Dany Synthe Et Sofly & Nius - Loin.wav
Peak level 98.8 %
Extraction speed 3.1 X
Track quality 100.0 %
Test CRC 14C4B58D
Copy CRC 14C4B58D
Track not present in AccurateRip database
Copy OK
Track 3
Filename E:\Nafta Releases\VA - 69 Hits Summer 2017 (3 CD 2017)[FLAC] - Naftamusic\CD 2\03 - Singuila - Ay Mama.wav
Peak level 99.9 %
Extraction speed 3.3 X
Track quality 100.0 %
Test CRC A3E07C28
Copy CRC A3E07C28
Track not present in AccurateRip database
Copy OK
Track 4
Filename E:\Nafta Releases\VA - 69 Hits Summer 2017 (3 CD 2017)[FLAC] - Naftamusic\CD 2\04 - Willy William - Voodoo Song.wav
Peak level 99.9 %
Extraction speed 3.5 X
Track quality 100.0 %
Test CRC A7736A8B
Copy CRC A7736A8B
Track not present in AccurateRip database
Copy OK
Track 5
Filename E:\Nafta Releases\VA - 69 Hits Summer 2017 (3 CD 2017)[FLAC] - Naftamusic\CD 2\05 - Cris Cab Ft. J. Balvin - Turn Out The Light.wav
Peak level 99.9 %
Extraction speed 3.7 X
Track quality 100.0 %
Test CRC 95A8765E
Copy CRC 95A8765E
Track not present in AccurateRip database
Copy OK
Track 6
Filename E:\Nafta Releases\VA - 69 Hits Summer 2017 (3 CD 2017)[FLAC] - Naftamusic\CD 2\06 - Ridsa - Avancer.wav
Peak level 100.0 %
Extraction speed 3.9 X
Track quality 100.0 %
Test CRC C0B6FB0D
Copy CRC C0B6FB0D
Track not present in AccurateRip database
Copy OK
Track 7
Filename E:\Nafta Releases\VA - 69 Hits Summer 2017 (3 CD 2017)[FLAC] - Naftamusic\CD 2\07 - Tibz - Nation.wav
Peak level 99.9 %
Extraction speed 3.1 X
Track quality 99.9 %
Test CRC B00F734A
Copy CRC B00F734A
Track not present in AccurateRip database
Copy OK
Track 8
Filename E:\Nafta Releases\VA - 69 Hits Summer 2017 (3 CD 2017)[FLAC] - Naftamusic\CD 2\08 - Lea Castel & Slimane - Abimée.wav
Peak level 99.9 %
Extraction speed 4.3 X
Track quality 100.0 %
Test CRC 6227D7E7
Copy CRC 6227D7E7
Track not present in AccurateRip database
Copy OK
Track 9
Filename E:\Nafta Releases\VA - 69 Hits Summer 2017 (3 CD 2017)[FLAC] - Naftamusic\CD 2\09 - Nassi - La Vie Est Belle.wav
Peak level 99.9 %
Extraction speed 4.4 X
Track quality 100.0 %
Test CRC F098F8D1
Copy CRC F098F8D1
Track not present in AccurateRip database
Copy OK
Track 10
Filename E:\Nafta Releases\VA - 69 Hits Summer 2017 (3 CD 2017)[FLAC] - Naftamusic\CD 2\10 - Vitaa - Peine & Pitie.wav
Peak level 99.9 %
Extraction speed 4.5 X
Track quality 100.0 %
Test CRC 25585402
Copy CRC 25585402
Track not present in AccurateRip database
Copy OK
Track 11
Filename E:\Nafta Releases\VA - 69 Hits Summer 2017 (3 CD 2017)[FLAC] - Naftamusic\CD 2\11 - Amir - Au Coeur De Moi.wav
Peak level 99.9 %
Extraction speed 4.6 X
Track quality 100.0 %
Test CRC 86DF3A23
Copy CRC 86DF3A23
Track not present in AccurateRip database
Copy OK
Track 12
Filename E:\Nafta Releases\VA - 69 Hits Summer 2017 (3 CD 2017)[FLAC] - Naftamusic\CD 2\12 - David Carreira - Domino.wav
Peak level 99.9 %
Extraction speed 4.8 X
Track quality 100.0 %
Test CRC 3A1DBFD3
Copy CRC 3A1DBFD3
Track not present in AccurateRip database
Copy OK
Track 13
Filename E:\Nafta Releases\VA - 69 Hits Summer 2017 (3 CD 2017)[FLAC] - Naftamusic\CD 2\13 - Vianney - Je M'En Vais.wav
Peak level 99.9 %
Extraction speed 5.0 X
Track quality 100.0 %
Test CRC FC93AB77
Copy CRC FC93AB77
Track not present in AccurateRip database
Copy OK
Track 14
Filename E:\Nafta Releases\VA - 69 Hits Summer 2017 (3 CD 2017)[FLAC] - Naftamusic\CD 2\14 - Boulevard Des Airs & Le Bagad De Lann-Bihoue - Le Bagad De Lann-Bihoue.wav
Peak level 100.0 %
Extraction speed 5.2 X
Track quality 100.0 %
Test CRC 3B8DE494
Copy CRC 3B8DE494
Track not present in AccurateRip database
Copy OK
Track 15
Filename E:\Nafta Releases\VA - 69 Hits Summer 2017 (3 CD 2017)[FLAC] - Naftamusic\CD 2\15 - Muli Artistes - Une Belle Histoire.wav
Peak level 97.9 %
Extraction speed 5.1 X
Track quality 100.0 %
Test CRC 8D20F9D1
Copy CRC 8D20F9D1
Track not present in AccurateRip database
Copy OK
Track 16
Filename E:\Nafta Releases\VA - 69 Hits Summer 2017 (3 CD 2017)[FLAC] - Naftamusic\CD 2\16 - Hoshi - Comment Je Vais Faire.wav
Pre-gap length 0:00:00.24
Peak level 99.9 %
Extraction speed 5.5 X
Track quality 100.0 %
Test CRC C7037DAD
Copy CRC C7037DAD
Track not present in AccurateRip database
Copy OK
Track 17
Filename E:\Nafta Releases\VA - 69 Hits Summer 2017 (3 CD 2017)[FLAC] - Naftamusic\CD 2\17 - Nevada Ft. Mark Morrison & Fetty Wap - The Mack.wav
Peak level 99.9 %
Extraction speed 3.9 X
Track quality 99.9 %
Test CRC D21B9D55
Copy CRC D21B9D55
Track not present in AccurateRip database
Copy OK
Track 18
Filename E:\Nafta Releases\VA - 69 Hits Summer 2017 (3 CD 2017)[FLAC] - Naftamusic\CD 2\18 - Don Diablo - Cutting Shapes.wav
Peak level 99.9 %
Extraction speed 5.5 X
Track quality 100.0 %
Test CRC A93D0309
Copy CRC A93D0309
Track not present in AccurateRip database
Copy OK
Track 19
Filename E:\Nafta Releases\VA - 69 Hits Summer 2017 (3 CD 2017)[FLAC] - Naftamusic\CD 2\19 - Bamby Ft. Jahyanai King - Real Wifey.wav
Peak level 99.9 %
Extraction speed 5.5 X
Track quality 100.0 %
Test CRC 8FBD788C
Copy CRC 8FBD788C
Track not present in AccurateRip database
Copy OK
Track 20
Filename E:\Nafta Releases\VA - 69 Hits Summer 2017 (3 CD 2017)[FLAC] - Naftamusic\CD 2\20 - Deorro Ft. Dycy - Goin Up.wav
Peak level 99.9 %
Extraction speed 4.1 X
Track quality 99.9 %
Test CRC 60277DEA
Copy CRC 60277DEA
Track not present in AccurateRip database
Copy OK
Track 21
Filename E:\Nafta Releases\VA - 69 Hits Summer 2017 (3 CD 2017)[FLAC] - Naftamusic\CD 2\21 - W&w - Caribbean Rave.wav
Peak level 99.9 %
Extraction speed 5.6 X
Track quality 100.0 %
Test CRC 4ECA45E1
Copy CRC 4ECA45E1
Track not present in AccurateRip database
Copy OK
Track 22
Filename E:\Nafta Releases\VA - 69 Hits Summer 2017 (3 CD 2017)[FLAC] - Naftamusic\CD 2\22 - Kshmr & Crossnaders Ft. Micky Blue - Back To Me.wav
Peak level 94.4 %
Extraction speed 5.9 X
Track quality 100.0 %
Test CRC 5670B441
Copy CRC 5670B441
Track not present in AccurateRip database
Copy OK
Track 23
Filename E:\Nafta Releases\VA - 69 Hits Summer 2017 (3 CD 2017)[FLAC] - Naftamusic\CD 2\23 - Pagadixx Ft. Adixia - Heaven.wav
Peak level 99.9 %
Extraction speed 6.2 X
Track quality 100.0 %
Test CRC E1A3BBD2
Copy CRC E1A3BBD2
Track not present in AccurateRip database
Copy OK
None of the tracks are present in the AccurateRip database
No errors occurred
End of status report
==== Log checksum 3C94BCCE3E26636F9CBBF57BD18AE210C910F0D28A7099C36CB8EE926C4E9455 ====
Содержание индексной карты (.CUE)
REM GENRE Pop
REM DATE 2017
REM DISCID 4F110017
REM COMMENT "ExactAudioCopy v1.5"
PERFORMER "Various Artists"
TITLE "69 Hits Summer 2017"
REM COMPOSER ""
FILE "01 - Black M feat. Shakira - Comme moi.wav" WAVE
TRACK 01 AUDIO
TITLE "Comme moi"
PERFORMER "Black M feat. Shakira"
REM COMPOSER ""
FLAGS DCP
INDEX 01 00:00:00
FILE "02 - Maitre Gims Ft. Dany Synthe Et Sofly & Nius - Loin.wav" WAVE
TRACK 02 AUDIO
TITLE "Loin"
PERFORMER "Maitre Gims Ft. Dany Synthe Et Sofly & Nius"
REM COMPOSER ""
FLAGS DCP
INDEX 01 00:00:00
FILE "03 - Singuila - Ay Mama.wav" WAVE
TRACK 03 AUDIO
TITLE "Ay Mama"
PERFORMER "Singuila"
REM COMPOSER ""
FLAGS DCP
INDEX 01 00:00:00
FILE "04 - Willy William - Voodoo Song.wav" WAVE
TRACK 04 AUDIO
TITLE "Voodoo Song"
PERFORMER "Willy William"
REM COMPOSER ""
FLAGS DCP
INDEX 01 00:00:00
FILE "05 - Cris Cab Ft. J. Balvin - Turn Out The Light.wav" WAVE
TRACK 05 AUDIO
TITLE "Turn Out The Light"
PERFORMER "Cris Cab Ft. J. Balvin"
REM COMPOSER ""
FLAGS DCP
INDEX 01 00:00:00
FILE "06 - Ridsa - Avancer.wav" WAVE
TRACK 06 AUDIO
TITLE "Avancer"
PERFORMER "Ridsa"
REM COMPOSER ""
FLAGS DCP
INDEX 01 00:00:00
FILE "07 - Tibz - Nation.wav" WAVE
TRACK 07 AUDIO
TITLE "Nation"
PERFORMER "Tibz"
REM COMPOSER ""
FLAGS DCP
INDEX 01 00:00:00
FILE "08 - Lea Castel & Slimane - Abimee.wav" WAVE
TRACK 08 AUDIO
TITLE "Abimee"
PERFORMER "Lea Castel & Slimane"
REM COMPOSER ""
FLAGS DCP
INDEX 01 00:00:00
FILE "09 - Nassi - La Vie Est Belle.wav" WAVE
TRACK 09 AUDIO
TITLE "La Vie Est Belle"
PERFORMER "Nassi"
REM COMPOSER ""
FLAGS DCP
INDEX 01 00:00:00
FILE "10 - Vitaa - Peine & Pitie.wav" WAVE
TRACK 10 AUDIO
TITLE "Peine & Pitie"
PERFORMER "Vitaa"
REM COMPOSER ""
FLAGS DCP
INDEX 01 00:00:00
FILE "11 - Amir - Au Coeur De Moi.wav" WAVE
TRACK 11 AUDIO
TITLE "Au Coeur De Moi"
PERFORMER "Amir"
REM COMPOSER ""
FLAGS DCP
INDEX 01 00:00:00
FILE "12 - David Carreira - Domino.wav" WAVE
TRACK 12 AUDIO
TITLE "Domino"
PERFORMER "David Carreira"
REM COMPOSER ""
FLAGS DCP
INDEX 01 00:00:00
FILE "13 - Vianney - Je M'En Vais.wav" WAVE
TRACK 13 AUDIO
TITLE "Je M'En Vais"
PERFORMER "Vianney"
REM COMPOSER ""
FLAGS DCP
INDEX 01 00:00:00
FILE "14 - Boulevard Des Airs & Le Bagad De Lann-Bihoue - Le Bagad De Lann-Bihoue.wav" WAVE
TRACK 14 AUDIO
TITLE "Le Bagad De Lann-Bihoue"
PERFORMER "Boulevard Des Airs & Le Bagad De Lann-Bihoue"
REM COMPOSER ""
FLAGS DCP
INDEX 01 00:00:00
FILE "15 - Muli Artistes - Une Belle Histoire.wav" WAVE
TRACK 15 AUDIO
TITLE "Une Belle Histoire"
PERFORMER "Muli Artistes"
REM COMPOSER ""
FLAGS DCP
INDEX 01 00:00:00
TRACK 16 AUDIO
TITLE "Comment Je Vais Faire"
PERFORMER "Hoshi"
REM COMPOSER ""
FLAGS DCP
INDEX 00 02:48:56
FILE "16 - Hoshi - Comment Je Vais Faire.wav" WAVE
INDEX 01 00:00:00
FILE "17 - Nevada Ft. Mark Morrison & Fetty Wap - The Mack.wav" WAVE
TRACK 17 AUDIO
TITLE "The Mack"
PERFORMER "Nevada Ft. Mark Morrison & Fetty Wap"
REM COMPOSER ""
FLAGS DCP
INDEX 01 00:00:00
FILE "18 - Don Diablo - Cutting Shapes.wav" WAVE
TRACK 18 AUDIO
TITLE "Cutting Shapes"
PERFORMER "Don Diablo"
REM COMPOSER ""
FLAGS DCP
INDEX 01 00:00:00
FILE "19 - Bamby Ft. Jahyanai King - Real Wifey.wav" WAVE
TRACK 19 AUDIO
TITLE "Real Wifey "
PERFORMER "Bamby Ft. Jahyanai King"
REM COMPOSER ""
FLAGS DCP
INDEX 01 00:00:00
FILE "20 - Deorro Ft. Dycy - Goin Up.wav" WAVE
TRACK 20 AUDIO
TITLE "Goin Up"
PERFORMER "Deorro Ft. Dycy"
REM COMPOSER ""
FLAGS DCP
INDEX 01 00:00:00
FILE "21 - W&w - Caribbean Rave.wav" WAVE
TRACK 21 AUDIO
TITLE "Caribbean Rave"
PERFORMER "W&w"
REM COMPOSER ""
FLAGS DCP
INDEX 01 00:00:00
FILE "22 - Kshmr & Crossnaders Ft. Micky Blue - Back To Me.wav" WAVE
TRACK 22 AUDIO
TITLE "Back To Me"
PERFORMER "Kshmr & Crossnaders Ft. Micky Blue"
REM COMPOSER ""
FLAGS DCP
INDEX 01 00:00:00
FILE "23 - Pagadixx Ft. Adixia - Heaven.wav" WAVE
TRACK 23 AUDIO
TITLE "Heaven"
PERFORMER "Pagadixx Ft. Adixia"
REM COMPOSER ""
FLAGS DCP
INDEX 01 00:00:00
CD3 - 01:14:46
01 - AJR - Weak (00:03:21)
02 - Martin Garrix & Brooks - Byte (00:04:42)
03 - Alok & Bruno Martini Feat. Zeeba - Hear Me Now (00:03:14)
04 - Bassjackers Vs. D'Angello & Francis - All Aboard (Dimitri Vegas & Like Mike Edit) (00:02:40)
05 - Starley - Call On Me (Ryan Riback Extended Remix) (00:03:43)
06 - Alan Walker - Alone (00:02:41)
07 - The Avener Feat. Mark Asari - I Need A Good One (00:03:48)
08 - Hardwell & Jay Sean - Thinking About You (00:03:13)
09 - Steve Aoki & Louis Tomlinson - Just Hold On (00:03:18)
10 - Mike Perry Feat. Casso - Inside The Lines (00:03:25)
11 - Tungevaag & Raaban Feat. Clara Mae - Wake Up Alone (00:03:31)
12 - Alle Farben - Bad Ideas (00:02:47)
13 - Bakermat Feat. Alex Clare - Living (00:03:17)
14 - Feder Feat. Alex Aiono - Lordly (00:03:15)
15 - Odyssey Feat. Amara Abonta - Fly (00:02:52)
16 - Burak Yeter Feat. Danelle Sandoval - Tuesday (00:04:01)
17 - Mosimann Feat. Joe Cleere - Never Let You Go (00:03:06)
18 - Lost Frequencies Feat. Axel Ehnstrom - All Or Nothing (00:02:38)
19 - Basada - Get Get Down (00:02:48)
20 - Consoul Trainin - Take Me To Infinity (00:03:29)
21 - Sigala & Digital Farm Animals - Only One (00:03:24)
22 - Nils Van Zandt - The Riddle (00:02:42)
23 - Era Istrefi Feat. Felix Snow - Redrum (00:02:49)
Лог создания рипа
Exact Audio Copy V1.5 from 20. February 2020
EAC extraction logfile from 9. June 2020, 21:31
Various Artists / 69 Hits Summer 2017
Used drive : PLEXTOR PX-891SAF PLUS Adapter: 1 ID: 0
Read mode : Secure
Utilize accurate stream : Yes
Defeat audio cache : Yes
Make use of C2 pointers : No
Read offset correction : 6
Overread into Lead-In and Lead-Out : No
Fill up missing offset samples with silence : Yes
Delete leading and trailing silent blocks : No
Null samples used in CRC calculations : Yes
Used interface : Native Win32 interface for Win NT & 2000
Gap handling : Appended to previous track
Used output format : User Defined Encoder
Selected bitrate : 1024 kBit/s
Quality : High
Add ID3 tag : No
Command line compressor : C:\Program Files (x86)\Exact Audio Copy\Flac\flac.exe
Additional command line options : -0 -V -T "ARTIST=%artist%" -T "TITLE=%title%" -T "ALBUM=%albumtitle%" -T "DATE=%year%" -T "TRACKNUMBER=%tracknr%" -T "TOTALTRACKS=%numtracks%" -T "GENRE=%genre%" -T "COMMENT=Naftamusic Release!" %source%
TOC of the extracted CD
Track | Start | Length | Start sector | End sector
---------------------------------------------------------
1 | 0:00.00 | 3:21.35 | 0 | 15109
2 | 3:21.35 | 4:41.54 | 15110 | 36238
3 | 8:03.14 | 3:14.10 | 36239 | 50798
4 | 11:17.24 | 2:40.28 | 50799 | 62826
5 | 13:57.52 | 3:43.23 | 62827 | 79574
6 | 17:41.00 | 2:41.24 | 79575 | 91673
7 | 20:22.24 | 3:48.06 | 91674 | 108779
8 | 24:10.30 | 3:12.49 | 108780 | 123228
9 | 27:23.04 | 3:18.23 | 123229 | 138101
10 | 30:41.27 | 3:24.39 | 138102 | 153440
11 | 34:05.66 | 3:31.02 | 153441 | 169267
12 | 37:36.68 | 2:46.51 | 169268 | 181768
13 | 40:23.44 | 3:17.00 | 181769 | 196543
14 | 43:40.44 | 3:15.24 | 196544 | 211192
15 | 46:55.68 | 2:52.27 | 211193 | 224119
16 | 49:48.20 | 4:01.24 | 224120 | 242218
17 | 53:49.44 | 3:06.30 | 242219 | 256198
18 | 56:55.74 | 2:37.51 | 256199 | 268024
19 | 59:33.50 | 2:48.33 | 268025 | 280657
20 | 62:22.08 | 3:29.14 | 280658 | 296346
21 | 65:51.22 | 3:23.39 | 296347 | 311610
22 | 69:14.61 | 2:42.24 | 311611 | 323784
23 | 71:57.10 | 2:49.02 | 323785 | 336461
Track 1
Filename E:\Nafta Releases\VA - 69 Hits Summer 2017 (3 CD 2017)[FLAC] - Naftamusic\CD 3\01 - AJR - Weak.wav
Pre-gap length 0:00:02.00
Peak level 99.9 %
Extraction speed 2.9 X
Track quality 100.0 %
Test CRC EC92A8BC
Copy CRC EC92A8BC
Track not present in AccurateRip database
Copy OK
Track 2
Filename E:\Nafta Releases\VA - 69 Hits Summer 2017 (3 CD 2017)[FLAC] - Naftamusic\CD 3\02 - Martin Garrix & Brooks - Byte.wav
Peak level 94.4 %
Extraction speed 3.3 X
Track quality 100.0 %
Test CRC 4870C82E
Copy CRC 4870C82E
Track not present in AccurateRip database
Copy OK
Track 3
Filename E:\Nafta Releases\VA - 69 Hits Summer 2017 (3 CD 2017)[FLAC] - Naftamusic\CD 3\03 - Alok & Bruno Martini Feat. Zeeba - Hear Me Now.wav
Peak level 100.0 %
Extraction speed 3.4 X
Track quality 100.0 %
Test CRC 0AD98049
Copy CRC 0AD98049
Track not present in AccurateRip database
Copy OK
Track 4
Filename E:\Nafta Releases\VA - 69 Hits Summer 2017 (3 CD 2017)[FLAC] - Naftamusic\CD 3\04 - Bassjackers Vs. D'Angello & Francis - All Aboard (Dimitri Vegas & Like Mike Edit).wav
Peak level 100.0 %
Extraction speed 3.4 X
Track quality 100.0 %
Test CRC 2BC5D7A8
Copy CRC 2BC5D7A8
Track not present in AccurateRip database
Copy OK
Track 5
Filename E:\Nafta Releases\VA - 69 Hits Summer 2017 (3 CD 2017)[FLAC] - Naftamusic\CD 3\05 - Starley - Call On Me (Ryan Riback Extended Remix).wav
Peak level 99.9 %
Extraction speed 3.9 X
Track quality 100.0 %
Test CRC F9EAA518
Copy CRC F9EAA518
Track not present in AccurateRip database
Copy OK
Track 6
Filename E:\Nafta Releases\VA - 69 Hits Summer 2017 (3 CD 2017)[FLAC] - Naftamusic\CD 3\06 - Alan Walker - Alone.wav
Peak level 99.9 %
Extraction speed 2.8 X
Track quality 99.9 %
Test CRC EF8482A9
Copy CRC EF8482A9
Track not present in AccurateRip database
Copy OK
Track 7
Filename E:\Nafta Releases\VA - 69 Hits Summer 2017 (3 CD 2017)[FLAC] - Naftamusic\CD 3\07 - The Avener Feat. Mark Asari - I Need A Good One.wav
Peak level 100.0 %
Extraction speed 3.3 X
Track quality 99.9 %
Test CRC C684531D
Copy CRC C684531D
Track not present in AccurateRip database
Copy OK
Track 8
Filename E:\Nafta Releases\VA - 69 Hits Summer 2017 (3 CD 2017)[FLAC] - Naftamusic\CD 3\08 - Hardwell & Jay Sean - Thinking About You.wav
Peak level 99.9 %
Extraction speed 4.3 X
Track quality 100.0 %
Test CRC B7599066
Copy CRC B7599066
Track not present in AccurateRip database
Copy OK
Track 9
Filename E:\Nafta Releases\VA - 69 Hits Summer 2017 (3 CD 2017)[FLAC] - Naftamusic\CD 3\09 - Steve Aoki & Louis Tomlinson - Just Hold On.wav
Peak level 99.9 %
Extraction speed 4.5 X
Track quality 100.0 %
Test CRC A05F5C7D
Copy CRC A05F5C7D
Track not present in AccurateRip database
Copy OK
Track 10
Filename E:\Nafta Releases\VA - 69 Hits Summer 2017 (3 CD 2017)[FLAC] - Naftamusic\CD 3\10 - Mike Perry Feat. Casso - Inside The Lines.wav
Peak level 99.9 %
Extraction speed 3.6 X
Track quality 99.9 %
Test CRC 42808BF4
Copy CRC 42808BF4
Track not present in AccurateRip database
Copy OK
Track 11
Filename E:\Nafta Releases\VA - 69 Hits Summer 2017 (3 CD 2017)[FLAC] - Naftamusic\CD 3\11 - Tungevaag & Raaban Feat. Clara Mae - Wake Up Alone.wav
Peak level 99.9 %
Extraction speed 4.8 X
Track quality 100.0 %
Test CRC AC64D5A1
Copy CRC AC64D5A1
Track not present in AccurateRip database
Copy OK
Track 12
Filename E:\Nafta Releases\VA - 69 Hits Summer 2017 (3 CD 2017)[FLAC] - Naftamusic\CD 3\12 - Alle Farben - Bad Ideas.wav
Peak level 100.0 %
Extraction speed 4.7 X
Track quality 100.0 %
Test CRC A8800F87
Copy CRC A8800F87
Track not present in AccurateRip database
Copy OK
Track 13
Filename E:\Nafta Releases\VA - 69 Hits Summer 2017 (3 CD 2017)[FLAC] - Naftamusic\CD 3\13 - Bakermat Feat. Alex Clare - Living.wav
Peak level 99.9 %
Extraction speed 5.0 X
Track quality 100.0 %
Test CRC 2DCF26C8
Copy CRC 2DCF26C8
Track not present in AccurateRip database
Copy OK
Track 14
Filename E:\Nafta Releases\VA - 69 Hits Summer 2017 (3 CD 2017)[FLAC] - Naftamusic\CD 3\14 - Feder Feat. Alex Aiono - Lordly.wav
Pre-gap length 0:00:00.73
Peak level 99.9 %
Extraction speed 5.1 X
Track quality 100.0 %
Test CRC 54EB0631
Copy CRC 54EB0631
Track not present in AccurateRip database
Copy OK
Track 15
Filename E:\Nafta Releases\VA - 69 Hits Summer 2017 (3 CD 2017)[FLAC] - Naftamusic\CD 3\15 - Odyssey Feat. Amara Abonta - Fly.wav
Peak level 99.9 %
Extraction speed 5.1 X
Track quality 100.0 %
Test CRC CD804361
Copy CRC CD804361
Track not present in AccurateRip database
Copy OK
Track 16
Filename E:\Nafta Releases\VA - 69 Hits Summer 2017 (3 CD 2017)[FLAC] - Naftamusic\CD 3\16 - Burak Yeter Feat. Danelle Sandoval - Tuesday.wav
Peak level 99.9 %
Extraction speed 4.4 X
Track quality 99.9 %
Test CRC 13D97262
Copy CRC 13D97262
Track not present in AccurateRip database
Copy OK
Track 17
Filename E:\Nafta Releases\VA - 69 Hits Summer 2017 (3 CD 2017)[FLAC] - Naftamusic\CD 3\17 - Mosimann Feat. Joe Cleere - Never Let You Go.wav
Peak level 97.0 %
Extraction speed 5.5 X
Track quality 100.0 %
Test CRC BD8B06F1
Copy CRC BD8B06F1
Track not present in AccurateRip database
Copy OK
Track 18
Filename E:\Nafta Releases\VA - 69 Hits Summer 2017 (3 CD 2017)[FLAC] - Naftamusic\CD 3\18 - Lost Frequencies Feat. Axel Ehnström - All Or Nothing.wav
Peak level 99.9 %
Extraction speed 3.9 X
Track quality 99.9 %
Test CRC B0D19C24
Copy CRC B0D19C24
Track not present in AccurateRip database
Copy OK
Track 19
Filename E:\Nafta Releases\VA - 69 Hits Summer 2017 (3 CD 2017)[FLAC] - Naftamusic\CD 3\19 - Basada - Get Get Down.wav
Peak level 99.9 %
Extraction speed 5.5 X
Track quality 100.0 %
Test CRC 7385D259
Copy CRC 7385D259
Track not present in AccurateRip database
Copy OK
Track 20
Filename E:\Nafta Releases\VA - 69 Hits Summer 2017 (3 CD 2017)[FLAC] - Naftamusic\CD 3\20 - Consoul Trainin - Take Me To Infinity.wav
Peak level 99.9 %
Extraction speed 5.8 X
Track quality 100.0 %
Test CRC AA8BF17D
Copy CRC AA8BF17D
Track not present in AccurateRip database
Copy OK
Track 21
Filename E:\Nafta Releases\VA - 69 Hits Summer 2017 (3 CD 2017)[FLAC] - Naftamusic\CD 3\21 - Sigala & Digital Farm Animals - Only One.wav
Peak level 99.9 %
Extraction speed 4.6 X
Track quality 99.9 %
Test CRC 681723B1
Copy CRC 681723B1
Track not present in AccurateRip database
Copy OK
Track 22
Filename E:\Nafta Releases\VA - 69 Hits Summer 2017 (3 CD 2017)[FLAC] - Naftamusic\CD 3\22 - Nils Van Zandt - The Riddle.wav
Peak level 96.3 %
Extraction speed 4.2 X
Track quality 99.9 %
Test CRC 8A9605CC
Copy CRC 8A9605CC
Track not present in AccurateRip database
Copy OK
Track 23
Filename E:\Nafta Releases\VA - 69 Hits Summer 2017 (3 CD 2017)[FLAC] - Naftamusic\CD 3\23 - Era Istrefi Feat. Felix Snow - Redrum.wav
Peak level 99.9 %
Extraction speed 5.9 X
Track quality 100.0 %
Test CRC D11F703B
Copy CRC D11F703B
Track not present in AccurateRip database
Copy OK
None of the tracks are present in the AccurateRip database
No errors occurred
End of status report
==== Log checksum 9BB52F55B7362E82FE5FD6D2BF0DC92B17D972428B0E146713584A7CE573C3CD ====
Содержание индексной карты (.CUE)
REM GENRE Pop
REM DATE 2017
REM DISCID 52118617
REM COMMENT "ExactAudioCopy v1.5"
PERFORMER "Various Artists"
TITLE "69 Hits Summer 2017"
REM COMPOSER ""
FILE "01 - AJR - Weak.wav" WAVE
TRACK 01 AUDIO
TITLE "Weak"
PERFORMER "AJR"
REM COMPOSER ""
FLAGS DCP
INDEX 01 00:00:00
FILE "02 - Martin Garrix & Brooks - Byte.wav" WAVE
TRACK 02 AUDIO
TITLE "Byte"
PERFORMER "Martin Garrix & Brooks"
REM COMPOSER ""
FLAGS DCP
INDEX 01 00:00:00
FILE "03 - Alok & Bruno Martini Feat. Zeeba - Hear Me Now.wav" WAVE
TRACK 03 AUDIO
TITLE "Hear Me Now"
PERFORMER "Alok & Bruno Martini Feat. Zeeba"
REM COMPOSER ""
FLAGS DCP
INDEX 01 00:00:00
FILE "04 - Bassjackers Vs. D'Angello & Francis - All Aboard (Dimitri Vegas & Like Mike Edit).wav" WAVE
TRACK 04 AUDIO
TITLE "All Aboard (Dimitri Vegas & Like Mike Edit)"
PERFORMER "Bassjackers Vs. D'Angello & Francis"
REM COMPOSER ""
FLAGS DCP
INDEX 01 00:00:00
FILE "05 - Starley - Call On Me (Ryan Riback Extended Remix).wav" WAVE
TRACK 05 AUDIO
TITLE "Call On Me (Ryan Riback Extended Remix)"
PERFORMER "Starley"
REM COMPOSER ""
FLAGS DCP
INDEX 01 00:00:00
FILE "06 - Alan Walker - Alone.wav" WAVE
TRACK 06 AUDIO
TITLE "Alone"
PERFORMER "Alan Walker"
REM COMPOSER ""
FLAGS DCP
INDEX 01 00:00:00
FILE "07 - The Avener Feat. Mark Asari - I Need A Good One.wav" WAVE
TRACK 07 AUDIO
TITLE "I Need A Good One"
PERFORMER "The Avener Feat. Mark Asari"
REM COMPOSER ""
FLAGS DCP
INDEX 01 00:00:00
FILE "08 - Hardwell & Jay Sean - Thinking About You.wav" WAVE
TRACK 08 AUDIO
TITLE "Thinking About You"
PERFORMER "Hardwell & Jay Sean"
REM COMPOSER ""
FLAGS DCP
INDEX 01 00:00:00
FILE "09 - Steve Aoki & Louis Tomlinson - Just Hold On.wav" WAVE
TRACK 09 AUDIO
TITLE "Just Hold On"
PERFORMER "Steve Aoki & Louis Tomlinson"
REM COMPOSER ""
FLAGS DCP
INDEX 01 00:00:00
FILE "10 - Mike Perry Feat. Casso - Inside The Lines.wav" WAVE
TRACK 10 AUDIO
TITLE "Inside The Lines"
PERFORMER "Mike Perry Feat. Casso"
REM COMPOSER ""
FLAGS DCP
INDEX 01 00:00:00
FILE "11 - Tungevaag & Raaban Feat. Clara Mae - Wake Up Alone.wav" WAVE
TRACK 11 AUDIO
TITLE "Wake Up Alone"
PERFORMER "Tungevaag & Raaban Feat. Clara Mae"
REM COMPOSER ""
FLAGS DCP
INDEX 01 00:00:00
FILE "12 - Alle Farben - Bad Ideas.wav" WAVE
TRACK 12 AUDIO
TITLE "Bad Ideas"
PERFORMER "Alle Farben"
REM COMPOSER ""
FLAGS DCP
INDEX 01 00:00:00
FILE "13 - Bakermat Feat. Alex Clare - Living.wav" WAVE
TRACK 13 AUDIO
TITLE "Living"
PERFORMER "Bakermat Feat. Alex Clare"
REM COMPOSER ""
FLAGS DCP
INDEX 01 00:00:00
TRACK 14 AUDIO
TITLE "Lordly"
PERFORMER "Feder Feat. Alex Aiono"
REM COMPOSER ""
FLAGS DCP
INDEX 00 03:16:02
FILE "14 - Feder Feat. Alex Aiono - Lordly.wav" WAVE
INDEX 01 00:00:00
FILE "15 - Odyssey Feat. Amara Abonta - Fly.wav" WAVE
TRACK 15 AUDIO
TITLE "Fly"
PERFORMER "Odyssey Feat. Amara Abonta"
REM COMPOSER ""
FLAGS DCP
INDEX 01 00:00:00
FILE "16 - Burak Yeter Feat. Danelle Sandoval - Tuesday.wav" WAVE
TRACK 16 AUDIO
TITLE "Tuesday"
PERFORMER "Burak Yeter Feat. Danelle Sandoval"
REM COMPOSER ""
FLAGS DCP
INDEX 01 00:00:00
FILE "17 - Mosimann Feat. Joe Cleere - Never Let You Go.wav" WAVE
TRACK 17 AUDIO
TITLE "Never Let You Go"
PERFORMER "Mosimann Feat. Joe Cleere"
REM COMPOSER ""
FLAGS DCP
INDEX 01 00:00:00
FILE "18 - Lost Frequencies Feat. Axel Ehnstrom - All Or Nothing.wav" WAVE
TRACK 18 AUDIO
TITLE "All Or Nothing"
PERFORMER "Lost Frequencies Feat. Axel Ehnstrom"
REM COMPOSER ""
FLAGS DCP
INDEX 01 00:00:00
FILE "19 - Basada - Get Get Down.wav" WAVE
TRACK 19 AUDIO
TITLE "Get Get Down"
PERFORMER "Basada"
REM COMPOSER ""
FLAGS DCP
INDEX 01 00:00:00
FILE "20 - Consoul Trainin - Take Me To Infinity.wav" WAVE
TRACK 20 AUDIO
TITLE "Take Me To Infinity"
PERFORMER "Consoul Trainin"
REM COMPOSER ""
FLAGS DCP
INDEX 01 00:00:00
FILE "21 - Sigala & Digital Farm Animals - Only One.wav" WAVE
TRACK 21 AUDIO
TITLE "Only One"
PERFORMER "Sigala & Digital Farm Animals"
REM COMPOSER ""
FLAGS DCP
INDEX 01 00:00:00
FILE "22 - Nils Van Zandt - The Riddle.wav" WAVE
TRACK 22 AUDIO
TITLE "The Riddle"
PERFORMER "Nils Van Zandt"
REM COMPOSER ""
FLAGS DCP
INDEX 01 00:00:00
FILE "23 - Era Istrefi Feat. Felix Snow - Redrum.wav" WAVE
TRACK 23 AUDIO
TITLE "Redrum"
PERFORMER "Era Istrefi Feat. Felix Snow"
REM COMPOSER ""
FLAGS DCP
INDEX 01 00:00:00
[Профиль] [ЛС]
Показать сообщения:    
Ответить на тему

Текущее время: 08-Авг 05:00

Часовой пояс: UTC + 4



Вы не можете начинать темы
Вы не можете отвечать на сообщения
Вы не можете редактировать свои сообщения
Вы не можете удалять свои сообщения
Вы не можете голосовать в опросах
Вы не можете прикреплять файлы к сообщениям
Вы не можете скачивать файлы