(Шансон) [WEB] Ляля Размахова (Кристина Стихина) - Коллекция (2 релиза 2019-2020) FLAC (tracks), lossless

Ответить на тему
 
Автор Сообщение

Direktor_49 ®

Стаж: 3 года 10 месяцев

Сообщений: 316

Откуда: Калининград

Создавать темы 02-Июн-2020 11:33

[Цитировать]



Жанр: Шансон
Носитель: WEB
Год издания: 2019
Страна исполнителя (группы): Россия
Аудиокодек: FLAC (*.flac)
Тип рипа: tracks
Продолжительность: 49:13
Источник: собственная покупка
Наличие сканов в содержимом раздачи: нет
2019 - Неземная (49:13)
01. Папа
02. Белым снегом
03. Спасибо
04. Алёна
05. Не оставляй меня
06. Королева
07. Северный ветер
08. Я люблю тебя
09. Мы пели о любви
10. Запоздалое счастье
11. Незабудки
12. Чао
13. Вороны
14. Неземная
Замер динамического диапазона (DR)
foobar2000 1.3.19 / Замер динамического диапазона (DR) 1.1.1
Дата отчёта: 2020-04-21 18:12:22
--------------------------------------------------------------------------------
Анализ: Ляля Размахова / Неземная
--------------------------------------------------------------------------------
DR Пики RMS Продолжительность трека
--------------------------------------------------------------------------------
DR7 -0.29 дБ -8.76 дБ 3:37 01-Папа
DR8 -0.30 дБ -8.95 дБ 3:27 02-Белым снегом
DR8 -0.30 дБ -8.84 дБ 3:19 03-Спасибо
DR7 -0.30 дБ -9.11 дБ 3:26 04-Алёна
DR7 -0.29 дБ -9.00 дБ 3:28 05-Не оставляй меня
DR8 -0.30 дБ -9.00 дБ 3:50 06-Королева
DR8 -0.30 дБ -9.02 дБ 3:34 07-Северный ветер
DR7 -0.30 дБ -9.04 дБ 4:02 08-Я люблю тебя
DR8 -0.30 дБ -9.02 дБ 3:35 09-Мы пели о любви
DR8 -0.29 дБ -9.00 дБ 3:16 10-Запоздалое счастье
DR8 -0.30 дБ -9.06 дБ 3:59 11-Незабудки
DR7 -0.30 дБ -8.96 дБ 2:53 12-Чао
DR7 -0.30 дБ -8.77 дБ 3:14 13-Вороны
DR7 -0.30 дБ -8.82 дБ 3:32 14-Неземная
--------------------------------------------------------------------------------
Количество треков: 14
Реальные значения DR: DR7
Частота: 44100 Гц
Каналов: 2
Разрядность: 16
Битрейт: 1061 кбит/с
Кодек: FLAC
Лог проверки качества
AUDIOCHECKER v2.0 beta (build 457) - by Dester - opdester@freemail.hu
~~~~~~~~~~~~~~~~~~~~~~~~~~~~~~~~~~
-=== DO NOT EDIT THIS FILE! ===-
Path: ...\Неземная
01 -=- 01 Папа.flac -=- CDDA (100%)
02 -=- 02 Белым снегом.flac -=- CDDA (100%)
03 -=- 03 Спасибо.flac -=- CDDA (100%)
04 -=- 04 Алёна.flac -=- CDDA (100%)
05 -=- 05 Не оставляй меня.flac -=- CDDA (100%)
06 -=- 06 Королева.flac -=- CDDA (100%)
07 -=- 07 Северный ветер.flac -=- CDDA (100%)
08 -=- 08 Я люблю тебя.flac -=- CDDA (100%)
09 -=- 09 Мы пели о любви.flac -=- CDDA (100%)
10 -=- 10 Запоздалое счастье.flac -=- CDDA (100%)
11 -=- 11 Незабудки.flac -=- CDDA (100%)
12 -=- 12 Чао.flac -=- CDDA (100%)
13 -=- 13 Вороны.flac -=- CDDA (100%)
14 -=- 14 Неземная.flac -=- CDDA (100%)
Summary 100,00% CDDA
116669108
2020 - Я пойду налево (17:15)
01. Я пойду налево
02. Влюблена
03. Милый мой
04. Вороны
05. Вспомни милый
Замер динамического диапазона (DR)
foobar2000 1.3.19 / Замер динамического диапазона (DR) 1.1.1
Дата отчёта: 2020-06-01 19:16:36
--------------------------------------------------------------------------------
Анализ: Ляля Размахова, Одиссей / Я пойду налево (1)
Ляля Размахова / Я пойду налево (2-5)
--------------------------------------------------------------------------------
DR Пики RMS Продолжительность трека
--------------------------------------------------------------------------------
DR8 -0.30 дБ -9.13 дБ 3:31 03-Милый мой
DR8 -0.30 дБ -9.00 дБ 3:50 01-Я пойду налево
DR8 -0.30 дБ -9.45 дБ 3:13 02-Влюблена
DR7 -0.30 дБ -8.77 дБ 3:14 04-Вороны
DR8 -0.30 дБ -8.95 дБ 3:27 05-Вспомни милый
--------------------------------------------------------------------------------
Количество треков: 5
Реальные значения DR: DR8
Частота: 44100 Гц
Каналов: 2
Разрядность: 16
Битрейт: 1033 кбит/с
Кодек: FLAC
Лог проверки качества
AUDIOCHECKER v2.0 beta (build 457) - by Dester - opdester@freemail.hu
~~~~~~~~~~~~~~~~~~~~~~~~~~~~~~~~~~
-=== DO NOT EDIT THIS FILE! ===-
Path: ...\[2020] Я пойду налево
1 -=- 01 Я пойду налево.flac -=- CDDA (100%)
2 -=- 02 Влюблена.flac -=- CDDA (100%)
3 -=- 03 Милый мой.flac -=- CDDA (100%)
4 -=- 04 Вороны.flac -=- CDDA (100%)
5 -=- 05 Вспомни милый.flac -=- CDDA (100%)
Summary 100,00% CDDA
139916740
Об исполнителе (группе)
Ляля Размахова. (Кристина Стихина) Родилась 15 мая 1978 года в Петропавловске-Камчатском, в музыкальной семье. С детства начала серьезно заниматься музыкой. В 1992 году поступила в Музыкальное училище Петропавловска-Камчатского по классу кларнета и саксофона. В 1993 году участвовала в конкурсах «Утренняя звезда» и «Юные таланты» «Эстрада, время, Мы» «В ритмах джаза», где неизменно побеждала. В 1994 году, переехала в Москву, и поступила в училище им Гнесиных (педагог Андрианова Н.З.) в 1996 году создала коллектив Cool Jazz они играли Jazz и Jazz Rock. В 1998 поступила в Академию им Гнесиных на эстрадно-Джазовый факультет, который окончила с отличием в 2002 году. В 1997 году был выпущен дебютный альбом «Я люблю тебя»...
Доп. информация: При появлении рипов с CD, релизы со стрим-ресурса будут поглощаться.
[Профиль] [ЛС]
Показать сообщения:    
Ответить на тему

Текущее время: 28-Сен 08:46

Часовой пояс: UTC + 3



Вы не можете начинать темы
Вы не можете отвечать на сообщения
Вы не можете редактировать свои сообщения
Вы не можете удалять свои сообщения
Вы не можете голосовать в опросах
Вы не можете прикреплять файлы к сообщениям
Вы не можете скачивать файлы