Various Artists - The Best Of Money Honey 1994-2001 (2019) (FLAC)

Ответить на тему
 
Автор Сообщение

vlad_evp ®

Стаж: 6 лет 10 месяцев

Сообщений: 96

Откуда: Керкинитида

Создавать темы 25-Мар-2020 11:59

[Цитировать]

Various Artists - The Best Of Money Honey 1994-2001 (2019) --
Жанр: Rockabilly
Носитель: CD
Страна-производитель диска: Россия
Название: The Best Of Money Honey
Исполнитель: Various Artists
Издатель (лейбл): Maschina Records
Год: 2019
Продолжительность: 01:15:59
Кодек: FLAC (*.flac)
Битрейт: lossless
Тип рипа: image+.cue
Наличие сканов в содержимом раздачи: да-Дополнительная информация:
Музыкальное издательство Maschina Records представляет сборник «The Best of Money Honey. Wild East Rockabilly Grooves of Saint-Petersburg 1994-2001». 17 питерских групп. 28 треков, большинство из которых ранее нигде и никогда не публиковались. Этот сборник посвящен легендарному клубу (салуну) Money Honey, который на протяжении 90-ых был центром эпохи 50-ых, не только Санкт-Петербурга, но и всей страны, объединив вокруг себя большое количество рок-н-ролльных групп и преданных поклонников этой музыки.-
Треклист:

01 - Rattlesnakes - El Caballero (Sutkovoy - Titov)
02 - Barbulators - Wolly Bully (Samudio)
03 - Mad Fish - The Crawdad Song (Griffith)
04 - Big Livers - Tired Of Rocking (Glenn - Burton)
05 - Cadillacs - Flipsville (Gayle - O'Bitts)
06 - Crooked Wheels - Rockin' Rollin' Stone (Gulledge - Patty)
07 - Stunnin' Jivesweets - Cadillac Jive (Shuvalov)
08 - The Swindlers - Crazy Legs (Red)
09 - Awaqua - Jumps, Giggles And Shouts (Vincent - Davis)
10 - The Sunstrockers - Let's Rockin' Baby (The Sunstrockers - Grebenuk)
11 - Rockin Chair - Oh Baby Babe (Burnette Bros. - Burlison - Mortimer)
12 - Buoyant Band - Lonesome Tears In My Eyes (Burnette Bros. - Burlison - Mortimer)
13 - The Shatters - Why My Money (The Shatters)
14 - Hoox - Eldorado (Hoox)
15 - Rattlesnakes - So Far Away from Home (Sutkovoy - Titov)
16 - Barbulators - Jamaica (Valli)
17 - Mad Fish - Rawhide (Washington - Tiomkin)
18 - Big Livers - Ice Fishin' Boogie (Novikov - Isakov)
19 - Cadillacs - Stop Midnight Train (trad. - Nicogotsiants, Grebenuk)
20 - Crooked Wheels - Dog My Cats (Svensson)
21 - Stunnin' Jivesweets - S.O.B. (Shuvalov)
22 - The Swindlers - Slip, Slip, Slippin' In (Belyeu - Wright)
23 - Awaqua - Midnight Train (Burnette Bros. - Burlison - Mortimer)
24 - The Sunstrockers - On The Rocket (The Sunstrockers - Nicogotsiants)
25 - Doggy-Doggy - Rumble In Brighton (Setzer - McDonnell)
26 - Hot Wheels - Driver's Life (Hot Wheels)
27 - Starlings - Gotta Lot of Rhythm in My Soul (Vaughan - Stevenson)
28 - Hoox - Money Honey (Stone)
Лог создания рипа
Exact Audio Copy V1.3 from 2. September 2016
EAC extraction logfile from 1. October 2019, 19:27
Various Artists / The Best Of Money Honey
Used drive  : HL-DT-STDVDRAM GUA0N   Adapter: 1  ID: 0
Read mode               : Secure
Utilize accurate stream : Yes
Defeat audio cache      : Yes
Make use of C2 pointers : No
Read offset correction                      : 6
Overread into Lead-In and Lead-Out          : No
Fill up missing offset samples with silence : Yes
Delete leading and trailing silent blocks   : No
Null samples used in CRC calculations       : Yes
Used interface                              : Native Win32 interface for Win NT & 2000
Used output format              : User Defined Encoder
Selected bitrate                : 128 kBit/s
Quality                         : High
Add ID3 tag                     : No
Command line compressor         : C:\Program Files (x86)\Exact Audio Copy\Flac\flac.exe
Additional command line options : -V -8 -T "Genre=%genre%" -T "Artist=%artist%" -T "Title=%title%" -T "Album=%albumtitle%" -T "Date=%year%" -T "Tracknumber=%tracknr%" -T "Comment=%comment%" %source%
TOC of the extracted CD
     Track |   Start  |  Length  | Start sector | End sector
    ---------------------------------------------------------
        1  |  0:00.00 |  4:15.00 |         0    |    19124
        2  |  4:15.00 |  2:31.10 |     19125    |    30459
        3  |  6:46.10 |  2:06.06 |     30460    |    39915
        4  |  8:52.16 |  2:16.20 |     39916    |    50135
        5  | 11:08.36 |  2:25.57 |     50136    |    61067
        6  | 13:34.18 |  2:34.01 |     61068    |    72618
        7  | 16:08.19 |  2:45.10 |     72619    |    85003
        8  | 18:53.29 |  2:21.48 |     85004    |    95626
        9  | 21:15.02 |  2:02.01 |     95627    |   104777
       10  | 23:17.03 |  2:16.01 |    104778    |   114978
       11  | 25:33.04 |  2:09.39 |    114979    |   124692
       12  | 27:42.43 |  2:10.48 |    124693    |   134490
       13  | 29:53.16 |  2:28.10 |    134491    |   145600
       14  | 32:21.26 |  3:12.24 |    145601    |   160024
       15  | 35:33.50 |  4:12.57 |    160025    |   178981
       16  | 39:46.32 |  1:50.20 |    178982    |   187251
       17  | 41:36.52 |  1:58.38 |    187252    |   196139
       18  | 43:35.15 |  3:02.31 |    196140    |   209820
       19  | 46:37.46 |  3:13.39 |    209821    |   224334
       20  | 49:51.10 |  2:41.38 |    224335    |   236447
       21  | 52:32.48 |  2:52.39 |    236448    |   249386
       22  | 55:25.12 |  2:45.38 |    249387    |   261799
       23  | 58:10.50 |  3:18.01 |    261800    |   276650
       24  | 61:28.51 |  2:31.11 |    276651    |   287986
       25  | 63:59.62 |  2:57.38 |    287987    |   301299
       26  | 66:57.25 |  3:26.01 |    301300    |   316750
       27  | 70:23.26 |  2:13.20 |    316751    |   326745
       28  | 72:36.46 |  3:22.04 |    326746    |   341899
Range status and errors
Selected range
     Filename D:\CD\Various Artists - The Best Of Money Honey.wav
     Peak level 98.8 %
     Extraction speed 2.2 X
     Range quality 99.9 %
     Test CRC C5590A9A
     Copy CRC C5590A9A
     Copy OK
No errors occurred
AccurateRip summary
Track  1  not present in database
Track  2  not present in database
Track  3  not present in database
Track  4  not present in database
Track  5  not present in database
Track  6  not present in database
Track  7  not present in database
Track  8  not present in database
Track  9  not present in database
Track 10  not present in database
Track 11  not present in database
Track 12  not present in database
Track 13  not present in database
Track 14  not present in database
Track 15  not present in database
Track 16  not present in database
Track 17  not present in database
Track 18  not present in database
Track 19  not present in database
Track 20  not present in database
Track 21  not present in database
Track 22  not present in database
Track 23  not present in database
Track 24  not present in database
Track 25  not present in database
Track 26  not present in database
Track 27  not present in database
Track 28  not present in database
None of the tracks are present in the AccurateRip database
End of status report
---- CUETools DB Plugin V2.1.6
[CTDB TOCID: .R5oDKzYRqJpH7vsSA_GGlOuMjc-] found
Submit result: .R5oDKzYRqJpH7vsSA_GGlOuMjc- has been uploaded
Track | CTDB Status
  1   | (5/5) Accurately ripped
  2   | (5/5) Accurately ripped
  3   | (5/5) Accurately ripped
  4   | (5/5) Accurately ripped
  5   | (5/5) Accurately ripped
  6   | (5/5) Accurately ripped
  7   | (5/5) Accurately ripped
  8   | (5/5) Accurately ripped
  9   | (5/5) Accurately ripped
10   | (5/5) Accurately ripped
11   | (5/5) Accurately ripped
12   | (5/5) Accurately ripped
13   | (5/5) Accurately ripped
14   | (5/5) Accurately ripped
15   | (5/5) Accurately ripped
16   | (5/5) Accurately ripped
17   | (5/5) Accurately ripped
18   | (5/5) Accurately ripped
19   | (5/5) Accurately ripped
20   | (5/5) Accurately ripped
21   | (5/5) Accurately ripped
22   | (5/5) Accurately ripped
23   | (5/5) Accurately ripped
24   | (5/5) Accurately ripped
25   | (5/5) Accurately ripped
26   | (5/5) Accurately ripped
27   | (1/5) Differs in 703 samples @00:20:45-00:20:46,00:21:13-00:21:14,01:32:18-01:32:19,01:32:62,01:33:30-01:33:31,01:33:52-01:33:53,01:33:74-01:34:00,01:37:14-01:37:15, or (1/5) differs in 152 samples @00:20:45-00:20:46,00:21:13-00:21:14, or (1/5) differs in 868 samples @00:20:45-00:20:46,00:21:13-00:21:14,00:23:15-00:23:16,00:23:37-00:23:38,00:23:58-00:23:59,00:24:27-00:24:28,00:24:48-00:24:49,00:25:39,00:27:19-00:27:20,00:27:40-00:27:41
28   | (5/5) Accurately ripped
If you are sure that your rip contains errors, you can use CUETools to repair it.
==== Log checksum 46E30E86214320547AD469EE65F1869892F3D22642C97C914269A9B45F9B569C ====
Содержание индексной карты (.CUE)
REM GENRE Rockabilly
REM DATE 2019
REM DISCID C411CE1C
REM COMMENT "ExactAudioCopy v1.3"
PERFORMER "Various Artists"
TITLE "The Best Of Money Honey"
REM COMPOSER ""
FILE "Various Artists - The Best Of Money Honey.flac" WAVE
  TRACK 01 AUDIO
    TITLE "El Caballero"
    PERFORMER "Rattlesnakes "
    REM COMPOSER ""
    INDEX 01 00:00:00
  TRACK 02 AUDIO
    TITLE "Wolly Bully"
    PERFORMER "Barbulators"
    REM COMPOSER ""
    INDEX 01 04:15:00
  TRACK 03 AUDIO
    TITLE "The Crawdad Song"
    PERFORMER "Mad Fish"
    REM COMPOSER ""
    INDEX 01 06:46:10
  TRACK 04 AUDIO
    TITLE "Tired Of Rocking"
    PERFORMER "Big Livers"
    REM COMPOSER ""
    INDEX 01 08:52:16
  TRACK 05 AUDIO
    TITLE "Flipsville"
    PERFORMER "Cadillacs"
    REM COMPOSER ""
    INDEX 01 11:08:36
  TRACK 06 AUDIO
    TITLE "Rockin' Rollin' Stone"
    PERFORMER "Crooked Wheels"
    REM COMPOSER ""
    INDEX 01 13:34:18
  TRACK 07 AUDIO
    TITLE "Caddy Jive"
    PERFORMER "Stunnin' Jivesweets"
    REM COMPOSER ""
    INDEX 01 16:08:19
  TRACK 08 AUDIO
    TITLE "Crazy Legs"
    PERFORMER "The Swindlers"
    REM COMPOSER ""
    INDEX 01 18:53:29
  TRACK 09 AUDIO
    TITLE "Jumps, Giggles And Shouts"
    PERFORMER "Awaqua "
    REM COMPOSER ""
    INDEX 01 21:15:02
  TRACK 10 AUDIO
    TITLE "Let's Rockin' Baby"
    PERFORMER "The Sunstrockers"
    REM COMPOSER ""
    INDEX 01 23:17:03
  TRACK 11 AUDIO
    TITLE "Oh Baby Babe"
    PERFORMER "Rockin Chair"
    REM COMPOSER ""
    INDEX 01 25:33:04
  TRACK 12 AUDIO
    TITLE "Lonesome Tears In My Eyes"
    PERFORMER "Buoyant Band"
    REM COMPOSER ""
    INDEX 01 27:42:43
  TRACK 13 AUDIO
    TITLE "Why My Money"
    PERFORMER "The Shatters"
    REM COMPOSER ""
    INDEX 01 29:53:16
  TRACK 14 AUDIO
    TITLE "Eldorado"
    PERFORMER "Hoox"
    REM COMPOSER ""
    INDEX 01 32:21:26
  TRACK 15 AUDIO
    TITLE "So Far Away from Home"
    PERFORMER "Rattlesnakes"
    REM COMPOSER ""
    INDEX 01 35:33:50
  TRACK 16 AUDIO
    TITLE "Jamaica "
    PERFORMER "Barbulators"
    REM COMPOSER ""
    INDEX 01 39:46:32
  TRACK 17 AUDIO
    TITLE "Rawhide"
    PERFORMER "Mad Fish"
    REM COMPOSER ""
    INDEX 01 41:36:52
  TRACK 18 AUDIO
    TITLE "Ice Fishin' Boogie "
    PERFORMER "Big Livers"
    REM COMPOSER ""
    INDEX 01 43:35:15
  TRACK 19 AUDIO
    TITLE "Stop Midnight Train"
    PERFORMER "Cadillacs"
    REM COMPOSER ""
    INDEX 01 46:37:46
  TRACK 20 AUDIO
    TITLE "Dog My Cats"
    PERFORMER "Crooked Wheels"
    REM COMPOSER ""
    INDEX 01 49:51:10
  TRACK 21 AUDIO
    TITLE "S.O.B."
    PERFORMER "Stunnin' Jivesweets"
    REM COMPOSER ""
    INDEX 01 52:32:48
  TRACK 22 AUDIO
    TITLE "Slip, Slip, Slippin' In "
    PERFORMER "The Swindlers"
    REM COMPOSER ""
    INDEX 01 55:25:12
  TRACK 23 AUDIO
    TITLE "Midnight Train"
    PERFORMER "Awaqua"
    REM COMPOSER ""
    INDEX 01 58:10:50
  TRACK 24 AUDIO
    TITLE "On The Rocket "
    PERFORMER "The Sunstrockers"
    REM COMPOSER ""
    INDEX 01 61:28:51
  TRACK 25 AUDIO
    TITLE "Rumble In Brighton"
    PERFORMER "Doggy-Doggy"
    REM COMPOSER ""
    INDEX 01 63:59:62
  TRACK 26 AUDIO
    TITLE "Driver's Life "
    PERFORMER "Hot Wheels"
    REM COMPOSER ""
    INDEX 01 66:57:25
  TRACK 27 AUDIO
    TITLE "Gotta Lot of Rhythm in My Soul"
    PERFORMER "Starlings"
    REM COMPOSER ""
    INDEX 01 70:23:26
  TRACK 28 AUDIO
    TITLE "Money Honey"
    PERFORMER "Hoox"
    REM COMPOSER ""
    INDEX 01 72:36:46
[Профиль] [ЛС]

Создавать темы 25-Мар-2020 12:02 (спустя 2 минуты)

Топик был перенесен из форума Music from other genres в форум Music from other genres
nickson-82
 
Показать сообщения:    
Ответить на тему

Текущее время: 01-Апр 12:07

Часовой пояс: UTC + 4



Вы не можете начинать темы
Вы не можете отвечать на сообщения
Вы не можете редактировать свои сообщения
Вы не можете удалять свои сообщения
Вы не можете голосовать в опросах
Вы не можете прикреплять файлы к сообщениям
Вы не можете скачивать файлы