Зима (2020) CAMRip [H.264/720p-LQ] [AD]

Ответить на тему
 
Автор Сообщение

nickson-82 ®

Стаж: 7 лет 1 месяц

Сообщений: 1988

Создавать темы 22-Мар-2020 23:01

[Цитировать]

Зима (2020) CAMRip [H.264/720p-LQ]- Производство: Россия / Кинотрест, Лук-фильм
Жанр: Драма, боевик
Режиссер: Сергей Черников
Актеры: Игорь Петренко, Александр Петров, Тимофей Трибунцев, Никита Павленко, Михаил Жигалов, Дмитрий Куличков, Александр Аблязов, Никита Салопин, Алексей Демидов, Никита Абдулов
Описание:
По пути домой в чужом городе Александр со своим отцом получают тяжелые ранения от пьяных малолетних преступников. Отец погибает, а Александр становится опасным свидетелем, которого необходимо устранить.
Он вынужден сам начать преследование и очень скоро из жертвы превращается в хладнокровного охотника.
[kp]1039764[/kp]
Возраст: 16+ (зрителям, достигшим 16 лет)
Дата премьеры в России: 27 февраля 2020
Продолжительность: 01:05:11
Качество видео: CAMRip http://sendfile.su/1551545
Перевод: Не требуется (русский)
Субтитры: Отсутствуют
Реклама: Присутствует баннер.
Видео: AVC/H.264, 1280x536, ~3568 Kbps
Аудио: AC-3, 2 ch, 384 Kbps
MediaInfo:
Общее
Полное имя : D:\NNM\Зима\Zima.2020.CAMRip.720p-LQ.mkv
Формат : Matroska
Версия формата : Version 2
Размер файла : 1,84 Гбайт
Продолжительность : 1 ч. 5 м.
Режим общего битрейта : Переменный
Общий поток : 4032 Кбит/сек
Программа кодирования : libmatroska 1.4.1
Библиотека кодирования : SolveigMM Matroska Muxer Version 1.0.1502.31
Видео
Идентификатор : 1
Формат : AVC
Формат/Информация : Advanced Video Codec
Профиль формата : High@L4.1
Настройки формата : CABAC / 4 Ref Frames
Параметр CABAC формата : Да
Параметр RefFrames формата : 4 кадра
Идентификатор кодека : V_MPEG4/ISO/AVC
Продолжительность : 1 ч. 5 м.
Вид битрейта : Переменный
Битрейт : 3568 Кбит/сек
Номинальный битрейт : 4000 Кбит/сек
Максимальный битрейт : 4000 Кбит/сек
Ширина : 1280 пикселей
Высота : 536 пикселей
Соотношение сторон : 2,40:1
Режим частоты кадров : Постоянный
Частота кадров : 23,976 (24000/1001) кадра/сек
Стандарт вещания : Component
Цветовое пространство : YUV
Субдискретизация насыщенности : 4:2:0
Битовая глубина : 8 бит
Тип развёртки : Прогрессивная
Бит/(Пиксели*Кадры) : 0.217
Размер потока : 1,62 Гбайт (88%)
Default : Нет
Forced : Нет
Цветовой диапазон : Limited
Основные цвета : BT.709
Характеристики трансфера : BT.709
Коэффициенты матрицы : BT.709
Аудио
Идентификатор : 2
Формат : AC-3
Формат/Информация : Audio Coding 3
Коммерческое название : Dolby Digital
Идентификатор кодека : A_AC3
Продолжительность : 1 ч. 5 м.
Вид битрейта : Постоянный
Битрейт : 384 Кбит/сек
Каналы : 2 канала
ChannelLayout : L R
Частота : 48,0 КГц
Частота кадров : 31,250 кадров/сек (1536 SPF)
Метод сжатия : С потерями
Размер потока : 179 Мбайт (10%)
Язык : Russian
ServiceKind/String : Complete Main
Default : Нет
Forced : Нет
Скриншоты:
[Профиль] [ЛС]
Показать сообщения:    
Ответить на тему

Текущее время: 30-Мар 17:20

Часовой пояс: UTC + 4



Вы не можете начинать темы
Вы не можете отвечать на сообщения
Вы не можете редактировать свои сообщения
Вы не можете удалять свои сообщения
Вы не можете голосовать в опросах
Вы не можете прикреплять файлы к сообщениям
Вы не можете скачивать файлы