Камуфляж и шпионаж / Spies in Disguise (Ник Бруно / Nick Bruno, Трой Квон / Troy Quane) [2019, США, мультфильм, фантастика, боевик, комедия, приключения, BDRip] Dub (iTunes) + Sub (Rus, Eng) + Original Eng

Ответить на тему
 
Автор Сообщение

nickson-82 ®

Стаж: 7 лет 1 месяц

Сообщений: 2048

Создавать темы 14-Мар-2020 10:43

[Цитировать]

Камуфляж и шпионаж / Spies in Disguise
Страна: США
Жанр: мультфильм, фантастика, боевик, комедия, приключения
Год выпуска: 2019
Продолжительность: 01:41:51-Перевод: Профессиональный (дублированный) | iTunes
Субтитры: русские (forced, full), английские (full, SDH)
Оригинальная аудиодорожка: английский-Режиссер:
Ник Бруно / Nick Bruno, Трой Квон / Troy Quane-В ролях:
Карен Гиллан, Рэйчел Броснахэн, Том Холланд, Уилл Смит, Рашида Джонс, Бен Мендельсон, Риба МакИнтайр, Стефания Спампинато, Маси Ока, Карла Хименес, D.J. Халед-Описание: Супершпион Лэнс Стерлинг и молодой ученый Уолтер Беккет - полные противоположности. Жизнерадостный Лэнс с удовольствием каждый день спасает города и страны. Хмурый Уолтер хочет отгородиться от всех в мире собственных изобретений и гаджетов. Но когда события принимают неожиданный оборот, этот маловероятный дуэт вынужден объединиться и проявить все свои способности в совершенно новом ключе. Странной паре потребуются невероятные чудеса маскировки ради спасения всего мира.-
Качество видео: BDRip | Spies.in.Disguise.2019.1080p.BluRay.REMUX.AVC.TrueHD.Atmos.7.1-iFT
Формат видео: AVI
Видео: 720x304 (2.37:1), 23.976 fps, XviD build 73 ~2219 kbps avg, 0.42 bit/pixel
Аудио 1: 48 kHz, AC3 Dolby Digital, 3/2 (L,C,R,l,r) + LFE ch, ~384 kbps | RUS
Аудио 2: 48 kHz, AC3 Dolby Digital, 3/2 (L,C,R,l,r) + LFE ch, ~448 kbps | ENG-Сэмпл
-
MediaInfo

Формат                                   : AVI
Формат/Информация                        : Audio Video Interleave
Профиль формата                          : OpenDML
Размер файла                             : 2,18 Гбайт
Продолжительность                        : 1 ч. 41 м.
Общий поток                              : 3058 Кбит/сек
Название фильма                          : Камуфляж и шпионаж_2019_BDRip
Программа кодирования                    : VirtualDubMod 1.5.10.3 | www.virtualdub-fr.org || (build 2550/release)
Авторское право                          : порошков
Видео
Идентификатор                            : 0
Формат                                   : MPEG-4 Visual
Профиль формата                          : Advanced Simple@L5
Настройки формата                        : BVOP1 / Custom Matrix
Параметр BVOP формата                    : 1
Параметр QPel формата                    : Нет
Параметр GMC формата                     : Без точки перехода
Параметр матрицы формата                 : Выборочная
Идентификатор кодека                     : XVID
Идентификатор кодека/Подсказка           : XviD
Продолжительность                        : 1 ч. 41 м.
Битрейт                                  : 2208 Кбит/сек
Ширина                                   : 720 пикселей
Высота                                   : 304 пикселя
Соотношение сторон                       : 2,35:1
Частота кадров                           : 23,976 (24000/1001) кадра/сек
Цветовое пространство                    : YUV
Субдискретизация насыщенности            : 4:2:0
Битовая глубина                          : 8 бит
Тип развёртки                            : Прогрессивная
Метод сжатия                             : С потерями
Бит/(Пиксели*Кадры)                      : 0.421
Размер потока                            : 1,57 Гбайт (72%)
Библиотека кодирования                   : XviD 73
Аудио #1
Идентификатор                            : 1
Формат                                   : AC-3
Формат/Информация                        : Audio Coding 3
Коммерческое название                    : Dolby Digital
Идентификатор кодека                     : 2000
Продолжительность                        : 1 ч. 41 м.
Вид битрейта                             : Постоянный
Битрейт                                  : 384 Кбит/сек
Каналы                                   : 6 каналов
ChannelLayout                            : L R C LFE Ls Rs
Частота                                  : 48,0 КГц
Частота кадров                           : 31,250 кадров/сек (1536 SPF)
Метод сжатия                             : С потерями
Размер потока                            : 280 Мбайт (13%)
Выравнивание                             : Разделение по промежуткам
Продолжительность промежутка             : 42  мс. (1,00 видеокадр)
Время предзагрузки промежутка            : 500  мс.
Заголовок                                : rus
ServiceKind/String                       : Complete Main
Аудио #2
Идентификатор                            : 2
Формат                                   : AC-3
Формат/Информация                        : Audio Coding 3
Коммерческое название                    : Dolby Digital
Идентификатор кодека                     : 2000
Продолжительность                        : 1 ч. 41 м.
Вид битрейта                             : Постоянный
Битрейт                                  : 448 Кбит/сек
Каналы                                   : 6 каналов
ChannelLayout                            : L R C LFE Ls Rs
Частота                                  : 48,0 КГц
Частота кадров                           : 31,250 кадров/сек (1536 SPF)
Метод сжатия                             : С потерями
Размер потока                            : 326 Мбайт (15%)
Выравнивание                             : Разделение по промежуткам
Продолжительность промежутка             : 42  мс. (1,00 видеокадр)
Время предзагрузки промежутка            : 500  мс.
Заголовок                                : eng
ServiceKind/String                       : Complete Main
Скриншоты
[Профиль] [ЛС]
Показать сообщения:    
Ответить на тему

Текущее время: 01-Апр 12:29

Часовой пояс: UTC + 4



Вы не можете начинать темы
Вы не можете отвечать на сообщения
Вы не можете редактировать свои сообщения
Вы не можете удалять свои сообщения
Вы не можете голосовать в опросах
Вы не можете прикреплять файлы к сообщениям
Вы не можете скачивать файлы