Первые ласточки / Перші ластівки [01-08 из 08] (2019) WEBRip 720p | L2 | RedDiamond Studio

Ответить на тему
 
Автор Сообщение

Dybrik13 ®

Стаж: 7 лет 9 месяцев

Сообщений: 190

Откуда: Киев

Создавать темы 07-Мар-2020 13:10

[Цитировать]

Первые ласточки / Перші ластівки- Оригинальное название: Перші ластівки
Год выхода: 2019
Жанр: триллер, драма, детектив
Режиссер: Валентин Шпаков
Сценарий: Евгений Туник, Алина Павликова, Ольга Кржечевская
В ролях: Таисия-Оксана Щурук (Катя), Полина Носыхина (Лера), Анна Остапенко (Соня), Максим Девизоров (Денис), Виктория Литвиненко (Ольга Макарова), Дарья Трегубова (Тина), Олег Гоцуляк (Макс), Мария Смолякова (Полина), Александр Рудинский (Никита) и др.-«Первые ласточки» – это сериал, основанный на реальных проблемах современных подростков. История фатальной дружбы в сети, история борьбы с жизнью, в которую взрослым страшно поверить. Молодежный триллер «Первые ласточки» покажет без приукрашиваний опасности, которым ежедневно подвергаются миллионы подростков во всем мире, а родители и не подозревают, насколько страшная угроза нависла над их семьей....
Старшеклассники Катя, Федя, Лера, Полина, Никита, Макс... У каждого своя история, свои проблемы, свое прошлое, но всех их объединяет один секрет. И, как оказалось, объединяет не только их. Страх, тайны, которые ведут к самому краю, первая любовь и истории, которые повергнут в шок родителей. «Это не о наших детях...» подумают многие. Возможно. А возможно, вы просто не хотите замечать «первые ласточки»....
Страна: Украина
Продолжительность: 8 x ~ 00:50:00
Перевод: Любительский (двухголосый закадровый) [RedDiamond Studio]
Формат видео: MKV
Качество: WEBRip 720p
Видео: 1280x720 (16:9), 25.000 fps, AVC MPEG-4 (х.264), High@L3.1 ~3000 kbps, 0.130 bit/pixel
Аудио: 48 kHz, AC3 Dolby Digital, 2/0 (L,R) ch, ~192 kbps
Субтитры: отсутствуют
Реклама отсутствует.
Трейлер
MediaInfo
General
Unique ID : 207345051132574549007951096009537638742 (0x9BFD344BAC31DC30090FF15372A45156)
Complete name : E:Первые ласточки1 серия.mkv
Format : Matroska
Format version : Version 4 / Version 2
File size : 1.05 GiB
Duration : 47 min 36 s
Overall bit rate : 3 167 kb/s
Encoded date : UTC 2019-12-08 11:15:35
Writing application : mkvmerge v32.0.0 ('Astral Progressions') 64-bit
Writing library : libebml v1.3.7 + libmatroska v1.5.0
Video
ID : 1
Format : AVC
Format/Info : Advanced Video Codec
Format profile : High@L3.1
Format settings, CABAC : Yes
Format settings, ReFrames : 4 frames
Codec ID : V_MPEG4/ISO/AVC
Duration : 47 min 36 s
Bit rate : 3 000 kb/s
Width : 1 280 pixels
Height : 720 pixels
Display aspect ratio : 16:9
Frame rate mode : Constant
Frame rate : 25.000 FPS
Color space : YUV
Chroma subsampling : 4:2:0
Bit depth : 8 bits
Scan type : Progressive
Bits/(Pixel*Frame) : 0.130
Stream size : 1 012 MiB (94%)
Writing library : x264 core 142 r2491 24e4fed
Encoding settings : cabac=1 / ref=3 / deblock=1:0:0 / analyse=0x3:0x113 / me=hex / subme=7 / psy=1 / psy_rd=1.00:0.00 / mixed_ref=1 / me_range=16 / chroma_me=1 / trellis=1 / 8x8dct=1 / cqm=0 / deadzone=21,11 / fast_pskip=1 / chroma_qp_offset=-2 / threads=16 / lookahead_threads=2 / sliced_threads=0 / nr=0 / decimate=1 / interlaced=0 / bluray_compat=0 / constrained_intra=0 / bframes=3 / b_pyramid=2 / b_adapt=1 / b_bias=0 / direct=1 / weightb=1 / open_gop=0 / weightp=2 / keyint=250 / keyint_min=25 / scenecut=40 / intra_refresh=0 / rc_lookahead=40 / rc=abr / mbtree=1 / bitrate=3000 / ratetol=1.0 / qcomp=0.60 / qpmin=0 / qpmax=69 / qpstep=4 / ip_ratio=1.40 / aq=1:1.00
Language : Russian
Default : Yes
Forced : No
Color range : Limited
Transfer characteristics : BT.601
Matrix coefficients : BT.601
Audio
ID : 2
Format : AC-3
Format/Info : Audio Coding 3
Format settings, Endianness : Big
Codec ID : A_AC3
Duration : 47 min 36 s
Bit rate mode : Constant
Bit rate : 192 kb/s
Channel(s) : 2 channels
Channel positions : Front: L R
Sampling rate : 48.0 kHz
Frame rate : 31.250 FPS (1536 spf)
Bit depth : 16 bits
Compression mode : Lossy
Stream size : 65.4 MiB (6%)
Language : Russian
Service kind : Complete Main
Default : Yes
Forced : No
Скриншоты
[Профиль] [ЛС]
Показать сообщения:    
Ответить на тему

Текущее время: 01-Апр 10:56

Часовой пояс: UTC + 4



Вы не можете начинать темы
Вы не можете отвечать на сообщения
Вы не можете редактировать свои сообщения
Вы не можете удалять свои сообщения
Вы не можете голосовать в опросах
Вы не можете прикреплять файлы к сообщениям
Вы не можете скачивать файлы