Настоящий Сталин (2020) WEBRip

Ответить на тему
 
Автор Сообщение

nickson-82 ®

Стаж: 7 лет 1 месяц

Сообщений: 2044

Создавать темы 25-Фев-2020 21:45

[Цитировать]

Настоящий Сталин (2020) WEBRip - Производство: Россия, студия "Думай сам/думай сейчас"
Жанр: Документальный, история
Продолжительность: 00:37:46
Язык озвучки: Русский
Субтитры: отсутствуют
Описание:
Наверное, ни одна другая историческая личность не вызывает таких же горячих дискуссий как фигура И.В.Сталина. Передачи о нём выходят в прямом эфире и в записи, его биография становится темой серьёзных аналитических передач и ток-шоу вроде «Пусть говорят». "Россия" и «Первый», Рен ТВ и НТВ, History, Discovery и National geographic снимают документальные фильмы, где так или иначе фигурирует Сталин. Его невозможно обойти стороной, когда обсуждаются СССР, социализм, советская история или Вторая мировая война. Дискуссия о Сталине давно идёт и в интернете. В ней участвуют начинающие и популярные блоггеры. Парфёнов и Пучков, «Намедни» и «Политпросвет» - во всемирной паутине мнения о сталинской эпохе тоже кардинально разнятся.
Релиз от: РГ РиперАМ
Качество видео: WEBRip
Видео: XviD, 704x384, ~1696 Kbps
Аудио: MP3, 2 ch, 128 Kbps
Mediainfo:
Общее
Полное имя : F:\КИНО\Nastoyashchij Stalin.avi
Формат : AVI
Формат/Информация : Audio Video Interleave
Размер файла : 496 Мбайт
Продолжительность : 37 м. 46 с.
Общий поток : 1834 Кбит/сек
Программа кодирования : VirtualDubMod 1.5.10.3 | www.virtualdub-fr.org || (build 2550/release)
Библиотека кодирования : VirtualDubMod build 2550/release
Видео
Идентификатор : 0
Формат : MPEG-4 Visual
Профиль формата : Simple@L1
Параметр BVOP формата : Нет
Параметр QPel формата : Нет
Параметр GMC формата : Без точки перехода
Параметр матрицы формата : Default (H.263)
Идентификатор кодека : XVID
Идентификатор кодека/Подсказка : XviD
Продолжительность : 37 м. 46 с.
Битрейт : 1696 Кбит/сек
Ширина : 704 пикселя
Высота : 384 пикселя
Соотношение сторон : 1,85:1
Частота кадров : 25,000 кадров/сек
Цветовое пространство : YUV
Субдискретизация насыщенности : 4:2:0
Битовая глубина : 8 бит
Тип развёртки : Прогрессивная
Метод сжатия : С потерями
Бит/(Пиксели*Кадры) : 0.251
Размер потока : 458 Мбайт (92%)
Библиотека кодирования : Lavc53.33.0
Аудио
Идентификатор : 1
Формат : MPEG Audio
Версия формата : Version 1
Профиль формата : Layer 3
Идентификатор кодека : 55
Идентификатор кодека/Подсказка : MP3
Продолжительность : 37 м. 46 с.
Вид битрейта : Постоянный
Битрейт : 128 Кбит/сек
Каналы : 2 канала
Частота : 44,1 КГц
Частота кадров : 38,281 кадров/сек (1152 SPF)
Метод сжатия : С потерями
Размер потока : 34,6 Мбайт (7%)
Выравнивание : Разделение по промежуткам
Продолжительность промежутка : 40 мс. (1,00 видеокадр)
Время предзагрузки промежутка : 500 мс.
Библиотека кодирования : LAME3.99r
Настройки программы : -m s -V 4 -q 2 -lowpass 17 -b 128
Скриншоты:
[Профиль] [ЛС]
Показать сообщения:    
Ответить на тему

Текущее время: 01-Апр 11:45

Часовой пояс: UTC + 4



Вы не можете начинать темы
Вы не можете отвечать на сообщения
Вы не можете редактировать свои сообщения
Вы не можете удалять свои сообщения
Вы не можете голосовать в опросах
Вы не можете прикреплять файлы к сообщениям
Вы не можете скачивать файлы