Аурика Ротару - Счастье-свободная птица (2006) [FLAC|Lossless|tracks + .cue]<Pop>

Ответить на тему
 
Автор Сообщение

Direktor_49 ®

Стаж: 3 года 8 месяцев

Сообщений: 235

Откуда: Калининград

Создавать темы 15-Фев-2020 19:54

[Цитировать]

Год: 2006
Жанр: Pop
Издание: J.R.C. JRC 06001-2
Источник (релизер): eloychik ®
Продолжительность: 01:04:10
Кодек: FLAC
Битрейт: Lossless
Тип рипа: tracks + .cue
Треклист:
01. Счастье - свободная птица 3:20
02. Двi голубки 3:25
03. Сентименте 4:48
04. Сопiлка 3:31
05. У огня свечи 4:57
06. Не думай плохо 4:42
07. Вальс 4:12
08. Дин ноу 3:41
09. По любви 4:30
10. Такси 4:31
11. Я не могу без тебя 3:08
Продолжение треклиста:
12. Падший ангел 3:47
13. На пороге - зима 3:41
14. Доленька 4:14
15. Твои слова, как мёд 4:35
16. Трава на лугу 3:25
Отчёт ЕАС:
Exact Audio Copy V1.3 from 2. September 2016
Отчёт EAC об извлечении, выполненном 13. февраля 2020, 19:21
Аурика Ротару / Счастье-свободная птица
Дисковод: Optiarc DVD RW AD-7240S   Adapter: 1  ID: 1
Режим чтения                 : Достоверность
Использование точного потока : Да
Отключение кэша аудио        : Да
Использование указателей C2  : Нет
Коррекция смещения при чтении                     : 48
Способность читать области Lead-in и Lead-out     : Нет
Заполнение пропущенных сэмплов тишиной            : Да
Удаление блоков с тишиной в начале и конце        : Нет
При вычислениях CRC использовались нулевые сэмплы : Да
Интерфейс                                         : Встроенный Win32-интерфейс для Win NT/2000
Обработка зазоров                                 : Добавлено к следующему треку
Выходной формат          : Пользовательский кодировщик
Выбранный битрейт        : 128 kBit/s
Качество                 : Высокий
Добавление ID3-тега      : Нет
Утилита сжатия           : C:\Program Files (x86)\Exact Audio Copy\Flac\flac.exe
Дополнительные параметры :  -8 -V -T "TITLE=%title%" -T "ARTIST=%artist%" -T "ALBUMARTIST=%albumartist%" -T "ALBUM=%albumtitle%" -T "DATE=%year%" -T "TRACKNUMBER=%tracknr%" -T "TRACKTOTAL=%numtracks%" -T "GENRE=%genre%" -T "COMMENT=%comment%" -T "PERFORMER=%albuminterpret%" -T "COMPOSER=%composer%" %source% -o %dest%
TOC извлечённого CD
Трек |   Старт  | Длительность | Начальный сектор | Конечный сектор
---------------------------------------------------------------------
1  |  0:00.00 |    3:21.27   |           0      |      15101
2  |  3:21.27 |    3:25.06   |       15102      |      30482
3  |  6:46.33 |    4:48.13   |       30483      |      52095
4  | 11:34.46 |    3:30.63   |       52096      |      67908
5  | 15:05.34 |    4:57.52   |       67909      |      90235
6  | 20:03.11 |    4:41.53   |       90236      |     111363
7  | 24:44.64 |    4:11.65   |      111364      |     130253
8  | 28:56.54 |    3:40.49   |      130254      |     146802
9  | 32:37.28 |    4:29.64   |      146803      |     167041
10  | 37:07.17 |    4:12.74   |      167042      |     186015
11  | 41:20.16 |    3:07.24   |      186016      |     200064
12  | 44:27.40 |    3:47.06   |      200065      |     217095
13  | 48:14.46 |    3:41.01   |      217096      |     233671
14  | 51:55.47 |    4:14.63   |      233672      |     252784
15  | 56:10.35 |    4:35.26   |      252785      |     273435
16  | 60:45.61 |    3:24.45   |      273436      |     288780
Трек  1
Имя файла E:\Раздачи\NNMClub-eloychik ®\Аурика Ротару - Счастье-свободная птица [NNM-Club.to]\01 Счастье-свободная птица.wav
Длина предзазора  0:00:02.00
Пиковый уровень 100.0 %
Скорость извлечения 2.3 X
Качество трека 100.0 %
CRC теста 9193DDFC
CRC копии 9193DDFC
Трек не обнаружен в базе AccurateRip
Копирование... OK
Трек  2
Имя файла E:\Раздачи\NNMClub-eloychik ®\Аурика Ротару - Счастье-свободная птица [NNM-Club.to]\02 Двi голубки.wav
Пиковый уровень 100.0 %
Скорость извлечения 2.5 X
Качество трека 100.0 %
CRC теста 67C39664
CRC копии 67C39664
Трек не обнаружен в базе AccurateRip
Копирование... OK
Трек  3
Имя файла E:\Раздачи\NNMClub-eloychik ®\Аурика Ротару - Счастье-свободная птица [NNM-Club.to]\03 Сентименте.wav
Пиковый уровень 100.0 %
Скорость извлечения 2.6 X
Качество трека 99.9 %
CRC теста 195F245F
CRC копии 195F245F
Трек не обнаружен в базе AccurateRip
Копирование... OK
Трек  4
Имя файла E:\Раздачи\NNMClub-eloychik ®\Аурика Ротару - Счастье-свободная птица [NNM-Club.to]\04 Сопiлка.wav
Пиковый уровень 100.0 %
Скорость извлечения 2.6 X
Качество трека 99.9 %
CRC теста B3CC2E9B
CRC копии B3CC2E9B
Трек не обнаружен в базе AccurateRip
Копирование... OK
Трек  5
Имя файла E:\Раздачи\NNMClub-eloychik ®\Аурика Ротару - Счастье-свободная птица [NNM-Club.to]\05 У огня свечи.wav
Пиковый уровень 100.0 %
Скорость извлечения 3.4 X
Качество трека 100.0 %
CRC теста 3035B9AE
CRC копии 3035B9AE
Трек не обнаружен в базе AccurateRip
Копирование... OK
Трек  6
Имя файла E:\Раздачи\NNMClub-eloychik ®\Аурика Ротару - Счастье-свободная птица [NNM-Club.to]\06 Не думай плохо.wav
Пиковый уровень 100.0 %
Скорость извлечения 3.6 X
Качество трека 100.0 %
CRC теста FB9DACA9
CRC копии FB9DACA9
Трек не обнаружен в базе AccurateRip
Копирование... OK
Трек  7
Имя файла E:\Раздачи\NNMClub-eloychik ®\Аурика Ротару - Счастье-свободная птица [NNM-Club.to]\07 Вальс.wav
Пиковый уровень 100.0 %
Скорость извлечения 3.7 X
Качество трека 100.0 %
CRC теста 297A6DDA
CRC копии 297A6DDA
Трек не обнаружен в базе AccurateRip
Копирование... OK
Трек  8
Имя файла E:\Раздачи\NNMClub-eloychik ®\Аурика Ротару - Счастье-свободная птица [NNM-Club.to]\08 Дин ноу.wav
Пиковый уровень 100.0 %
Скорость извлечения 3.8 X
Качество трека 100.0 %
CRC теста C1F1074D
CRC копии C1F1074D
Трек не обнаружен в базе AccurateRip
Копирование... OK
Трек  9
Имя файла E:\Раздачи\NNMClub-eloychik ®\Аурика Ротару - Счастье-свободная птица [NNM-Club.to]\09 По любви.wav
Пиковый уровень 100.0 %
Скорость извлечения 4.1 X
Качество трека 100.0 %
CRC теста 48CB0048
CRC копии 48CB0048
Трек не обнаружен в базе AccurateRip
Копирование... OK
Трек 10
Имя файла E:\Раздачи\NNMClub-eloychik ®\Аурика Ротару - Счастье-свободная птица [NNM-Club.to]\10 Такси.wav
Пиковый уровень 100.0 %
Скорость извлечения 3.7 X
Качество трека 99.9 %
CRC теста B965B55A
CRC копии B965B55A
Трек не обнаружен в базе AccurateRip
Копирование... OK
Трек 11
Имя файла E:\Раздачи\NNMClub-eloychik ®\Аурика Ротару - Счастье-свободная птица [NNM-Club.to]\11 Я не могу без тебя.wav
Пиковый уровень 100.0 %
Скорость извлечения 4.2 X
Качество трека 100.0 %
CRC теста BD5D7A15
CRC копии BD5D7A15
Трек не обнаружен в базе AccurateRip
Копирование... OK
Трек 12
Имя файла E:\Раздачи\NNMClub-eloychik ®\Аурика Ротару - Счастье-свободная птица [NNM-Club.to]\12 Падший ангел.wav
Пиковый уровень 100.0 %
Скорость извлечения 3.8 X
Качество трека 99.9 %
CRC теста AB4167F3
CRC копии AB4167F3
Трек не обнаружен в базе AccurateRip
Копирование... OK
Трек 13
Имя файла E:\Раздачи\NNMClub-eloychik ®\Аурика Ротару - Счастье-свободная птица [NNM-Club.to]\13 На пороге - зима.wav
Пиковый уровень 100.0 %
Скорость извлечения 4.4 X
Качество трека 100.0 %
CRC теста 437E2F85
CRC копии 437E2F85
Трек не обнаружен в базе AccurateRip
Копирование... OK
Трек 14
Имя файла E:\Раздачи\NNMClub-eloychik ®\Аурика Ротару - Счастье-свободная птица [NNM-Club.to]\14 Доленька.wav
Пиковый уровень 99.9 %
Скорость извлечения 4.7 X
Качество трека 100.0 %
CRC теста B18B0142
CRC копии B18B0142
Трек не обнаружен в базе AccurateRip
Копирование... OK
Трек 15
Имя файла E:\Раздачи\NNMClub-eloychik ®\Аурика Ротару - Счастье-свободная птица [NNM-Club.to]\15 Твои слова, как мёд.wav
Пиковый уровень 100.0 %
Скорость извлечения 5.0 X
Качество трека 100.0 %
CRC теста EE0A2FD8
CRC копии EE0A2FD8
Трек не обнаружен в базе AccurateRip
Копирование... OK
Трек 16
Имя файла E:\Раздачи\NNMClub-eloychik ®\Аурика Ротару - Счастье-свободная птица [NNM-Club.to]\16 Трава на лугу.wav
Пиковый уровень 100.0 %
Скорость извлечения 4.9 X
Качество трека 100.0 %
CRC теста A09BB22B
CRC копии A09BB22B
Трек не обнаружен в базе AccurateRip
Копирование... OK
Ни одного трека нет в базе AccurateRip
Ошибок не произошло
Конец отчёта
==== Контрольная сумма отчёта C6CEFB9B0DB1EBB26D0603B1194B3FDA16D8FCD8B38E716B6617CA41F509D573 ====
Дополнительная информация:
Младшая сестра Софии Ротару [/spoi


Последний раз редактировалось: Direktor_49 (2020-02-16 04:43), всего редактировалось 1 раз
[Профиль] [ЛС]

Создавать темы 15-Фев-2020 19:55 (спустя 1 минута)

Топик был перенесен из форума World Pop в форум World Pop
Direktor_49
 
Показать сообщения:    
Ответить на тему

Текущее время: 07-Июл 07:08

Часовой пояс: UTC + 4



Вы не можете начинать темы
Вы не можете отвечать на сообщения
Вы не можете редактировать свои сообщения
Вы не можете удалять свои сообщения
Вы не можете голосовать в опросах
Вы не можете прикреплять файлы к сообщениям
Вы не можете скачивать файлы