Горячая точка (2019) WEBRip (сезон 1, серии 1-24 из 24)

Ответить на тему
 
Автор Сообщение

Feudor888 ®

Стаж: 8 лет 2 месяца

Сообщений: 511

Создавать темы 12-Фев-2020 15:56

[Цитировать]

Горячая точка (2019) WEBRip (сезон 1, серии 1-24 из 24) Производство: Россия / «Киностудия КИТ»
Жанр: детектив, драма
Режиссер: Денис Карро
Актеры: Арсений Робак, Александр Носик, Ирина Савицкова, Елена Лотова, Назир Жуков, Павел Попов, Ирина Лукина, Олег Каменщиков, Иван Моховиков, Сергей Шарифуллин и др.
Описание:
2001 год. Евгений возвращается в родной городок, после 7-летней службы по контракту. По приезду парень обнаруживает, что его бывшая девушка стала наркоманкой, как и большинство местной молодёжи. А мать с отчимом, ветераном афгана, ведут отчаянную борьбу за лесопилку, которую стремятся захватить бандиты. Пытаясь решить проблемы семьи, Женя переходит дорогу очень опасным людям и понимает, что недостаточно будет защищать только «своих», со злом нужно бороться в масштабах города.. .
Дата российской премьеры: 27 января 2020 (НТВ)
Продолжительность: ~00:50:00 серия
Качество видео: WEBRip
Видео: Xvid, 720x400 (16:9), ~1333 kbps
Аудио: AC3, 2 ch, 192 kbps
MediaInfo:
General
Complete name : F:\Мои сериалы\Gorjachaja_tochka_S1_1-24iz24_2019_XviD_WEBRip\Gorjachaja_tochka_S1_01.avi
Format : AVI
Format/Info : Audio Video Interleave
File size : 556 MiB
Duration : 50 min 37 s
Overall bit rate : 1 534 kb/s
Writing library : VirtualDub2 build 44015/release
Video
ID : 0
Format : MPEG-4 Visual
Format profile : Advanced Simple@L5
Format settings : BVOP2
Format settings, BVOP : 2
Format settings, QPel : No
Format settings, GMC : No warppoints
Format settings, Matrix : Default (H.263)
Codec ID : XVID
Codec ID/Hint : XviD
Duration : 50 min 37 s
Bit rate : 1 333 kb/s
Width : 720 pixels
Height : 400 pixels
Display aspect ratio : 16:9
Frame rate : 25.000 FPS
Color space : YUV
Chroma subsampling : 4:2:0
Bit depth : 8 bits
Scan type : Progressive
Compression mode : Lossy
Bits/(Pixel*Frame) : 0.185
Stream size : 483 MiB (87%)
Writing library : XviD 69
Audio
ID : 1
Format : AC-3
Format/Info : Audio Coding 3
Commercial name : Dolby Digital
Codec ID : 2000
Duration : 50 min 37 s
Bit rate mode : Constant
Bit rate : 192 kb/s
Channel(s) : 2 channels
Channel layout : L R
Sampling rate : 48.0 kHz
Frame rate : 31.250 FPS (1536 SPF)
Bit depth : 16 bits
Compression mode : Lossy
Stream size : 69.5 MiB (13%)
Alignment : Aligned on interleaves
Interleave, duration : 40 ms (1.00 video frame)
Interleave, preload duration : 512 ms
Service kind : Complete Main
Скриншоты:
[Профиль] [ЛС]
Показать сообщения:    
Ответить на тему

Текущее время: 28-Сен 08:45

Часовой пояс: UTC + 3



Вы не можете начинать темы
Вы не можете отвечать на сообщения
Вы не можете редактировать свои сообщения
Вы не можете удалять свои сообщения
Вы не можете голосовать в опросах
Вы не можете прикреплять файлы к сообщениям
Вы не можете скачивать файлы