Elysian Fields - Queen Of The Meadow (2000) [FLAC|Lossless|tracks + .cue] <Rock, Lounge, Alternative Rock>

Ответить на тему
 
Автор Сообщение

Direktor_49 ®

Стаж: 3 года 3 месяца

Сообщений: 206

Откуда: Калининград

Создавать темы 11-Фев-2020 12:51

[Цитировать]

Производство: Jetset Records – TWA33CD
Год: 2000
Жанр: Rock, Lounge, Alternative Rock
Продолжительность: 00:59:07
Кодек: FLAC
Битрейт: Lossless
Тип рипа: tracks + .cue
Треклист:
01. Black Acres (4:27)
02. Bayonne (4:08)
03. Bend Your Mind (3:27)
04. Tides Of The Moon (4:21)
05. Hearts Are Open Graves (3:15)
06. Rope Of Weeds (6:11)
07. Dream Within A Dream (4:40)
08. Barely Recognize You (4:48)
09. Fright Night (5:51)
10. Queen Of The Meadow (4:32)
11. Cities Will Fall (13:20)
12. Untitled (0:07)
Отчёт XLD:
X Lossless Decoder version 20170729 (150.3)
XLD extraction logfile from 2018-08-25 08:35:19 -0400
Elysian Fields / Queen of the Meadow
Used drive : TSSTcorp CDDVDW SE-218CB (revision MF00)
Media type : Pressed CD
Ripper mode : XLD Secure Ripper
Disable audio cache : OK for the drive with a cache less than 1375KiB
Make use of C2 pointers : NO
Read offset correction : 6
Max retry count : 100
Gap status : Analyzed, Appended (except HTOA)
TOC of the extracted CD
Track | Start | Length | Start sector | End sector
---------------------------------------------------------
1 | 00:00:00 | 04:27:20 | 0 | 20044
2 | 04:27:20 | 04:08:30 | 20045 | 38674
3 | 08:35:50 | 03:26:47 | 38675 | 54171
4 | 12:02:22 | 04:21:25 | 54172 | 73771
5 | 16:23:47 | 03:15:23 | 73772 | 88419
6 | 19:38:70 | 06:11:35 | 88420 | 116279
7 | 25:50:30 | 04:39:50 | 116280 | 137254
8 | 30:30:05 | 04:48:02 | 137255 | 158856
9 | 35:18:07 | 05:50:58 | 158857 | 185164
10 | 41:08:65 | 04:32:32 | 185165 | 205596
11 | 45:41:22 | 13:19:53 | 205597 | 265574
12 | 59:01:00 | 00:07:15 | 265575 | 266114
List of alternate offset correction values
# | Absolute | Relative | Confidence
------------------------------------------
1 | -648 | -654 | 2
2 | -517 | -523 | 2
AccurateRip Summary (DiscID: 001890c8-00ea94c5-990ddc0c)
Track 01 : OK (v1+v2, confidence 14/31)
Track 02 : OK (v1+v2, confidence 14/30)
Track 03 : OK (v1+v2, confidence 14/31)
Track 04 : OK (v1+v2, confidence 13/28)
Track 05 : OK (v1+v2, confidence 14/29)
Track 06 : OK (v1+v2, confidence 14/28)
Track 07 : OK (v1+v2, confidence 14/28)
Track 08 : OK (v1+v2, confidence 14/28)
Track 09 : OK (v1+v2, confidence 14/29)
Track 10 : OK (v1+v2, confidence 13/28)
Track 11 : OK (v1+v2, confidence 12/27)
Track 12 : OK (v1+v2, confidence 13/27)
->All tracks accurately ripped.
All Tracks
Album gain : -4.36 dB
Peak : 0.998962
Statistics
Read error : 0
Jitter error (maybe fixed) : 0
Retry sector count : 0
Damaged sector count : 0
Track 01
Filename : /Users/iihokii/Music/Elysian Fields - 2000 - Queen of the Meadow [FLAC]/01 - Black Acres.flac
Pre-gap length : 00:02:00
Track gain : -2.12 dB
Peak : 0.998901
CRC32 hash (test run) : 269181B4
CRC32 hash : 269181B4
CRC32 hash (skip zero) : 2C22E613
AccurateRip v1 signature : D1BC5032
AccurateRip v2 signature : BB190DA6
->Accurately ripped (v1+v2, confidence 7+7/31)
Statistics
Read error : 0
Jitter error (maybe fixed) : 0
Retry sector count : 0
Damaged sector count : 0
Track 02
Filename : /Users/iihokii/Music/Elysian Fields - 2000 - Queen of the Meadow [FLAC]/02 - Bayonne.flac
Pre-gap length : 00:01:33
Track gain : -2.40 dB
Peak : 0.998932
CRC32 hash (test run) : 827495D7
CRC32 hash : 827495D7
CRC32 hash (skip zero) : F880E01A
AccurateRip v1 signature : 66916D61
AccurateRip v2 signature : DE1B930E
->Accurately ripped (v1+v2, confidence 7+7/30)
Statistics
Read error : 0
Jitter error (maybe fixed) : 0
Retry sector count : 0
Damaged sector count : 0
Track 03
Filename : /Users/iihokii/Music/Elysian Fields - 2000 - Queen of the Meadow [FLAC]/03 - Bend Your Mind.flac
Track gain : -8.55 dB
Peak : 0.998962
CRC32 hash (test run) : 2D481222
CRC32 hash : 2D481222
CRC32 hash (skip zero) : ED27B735
AccurateRip v1 signature : 5B66E0EF
AccurateRip v2 signature : A0BE84B2
->Accurately ripped (v1+v2, confidence 7+7/31)
Statistics
Read error : 0
Jitter error (maybe fixed) : 0
Retry sector count : 0
Damaged sector count : 0
Track 04
Filename : /Users/iihokii/Music/Elysian Fields - 2000 - Queen of the Meadow [FLAC]/04 - Tides of the Moon.flac
Track gain : -5.56 dB
Peak : 0.998932
CRC32 hash (test run) : B5B201CF
CRC32 hash : B5B201CF
CRC32 hash (skip zero) : 6604310D
AccurateRip v1 signature : 57E352C0
AccurateRip v2 signature : 4F036D06
->Accurately ripped (v1+v2, confidence 7+6/28)
Statistics
Read error : 0
Jitter error (maybe fixed) : 0
Retry sector count : 0
Damaged sector count : 0
Track 05
Filename : /Users/iihokii/Music/Elysian Fields - 2000 - Queen of the Meadow [FLAC]/05 - Hearts are Open Graves.flac
Track gain : -6.79 dB
Peak : 0.998932
CRC32 hash (test run) : 1E21CB88
CRC32 hash : 1E21CB88
CRC32 hash (skip zero) : 8C811C57
AccurateRip v1 signature : 62905F16
AccurateRip v2 signature : B12F1418
->Accurately ripped (v1+v2, confidence 7+7/29)
Statistics
Read error : 0
Jitter error (maybe fixed) : 0
Retry sector count : 0
Damaged sector count : 0
Track 06
Filename : /Users/iihokii/Music/Elysian Fields - 2000 - Queen of the Meadow [FLAC]/06 - Rope of Weeds.flac
Track gain : -1.45 dB
Peak : 0.998932
CRC32 hash (test run) : 2684A72F
CRC32 hash : 2684A72F
CRC32 hash (skip zero) : 6FBA43BE
AccurateRip v1 signature : A2AA37C3
AccurateRip v2 signature : DAB94B27
->Accurately ripped (v1+v2, confidence 7+7/28)
Statistics
Read error : 0
Jitter error (maybe fixed) : 0
Retry sector count : 0
Damaged sector count : 0
Track 07
Filename : /Users/iihokii/Music/Elysian Fields - 2000 - Queen of the Meadow [FLAC]/07 - Dream Within a Dream.flac
Track gain : -2.84 dB
Peak : 0.998901
CRC32 hash (test run) : 2EF4AF90
CRC32 hash : 2EF4AF90
CRC32 hash (skip zero) : EAFF4FDF
AccurateRip v1 signature : 5C7302DF
AccurateRip v2 signature : 042E3A5E
->Accurately ripped (v1+v2, confidence 7+7/28)
Statistics
Read error : 0
Jitter error (maybe fixed) : 0
Retry sector count : 0
Damaged sector count : 0
Track 08
Filename : /Users/iihokii/Music/Elysian Fields - 2000 - Queen of the Meadow [FLAC]/08 - Barely Recognize You.flac
Track gain : -0.87 dB
Peak : 0.998901
CRC32 hash (test run) : 0E8071C7
CRC32 hash : 0E8071C7
CRC32 hash (skip zero) : 01924FEF
AccurateRip v1 signature : 69B8FD6C
AccurateRip v2 signature : FFEE6DDB
->Accurately ripped (v1+v2, confidence 7+7/28)
Statistics
Read error : 0
Jitter error (maybe fixed) : 0
Retry sector count : 0
Damaged sector count : 0
Track 09
Filename : /Users/iihokii/Music/Elysian Fields - 2000 - Queen of the Meadow [FLAC]/09 - Fright Night.flac
Track gain : -4.78 dB
Peak : 0.998932
CRC32 hash (test run) : AC4B9FB7
CRC32 hash : AC4B9FB7
CRC32 hash (skip zero) : FCBFB830
AccurateRip v1 signature : FF0AD8F2
AccurateRip v2 signature : 799E5572
->Accurately ripped (v1+v2, confidence 7+7/29)
Statistics
Read error : 0
Jitter error (maybe fixed) : 0
Retry sector count : 0
Damaged sector count : 0
Track 10
Filename : /Users/iihokii/Music/Elysian Fields - 2000 - Queen of the Meadow [FLAC]/10 - Queen of the Meadow.flac
Pre-gap length : 00:01:18
Track gain : -3.33 dB
Peak : 0.998932
CRC32 hash (test run) : 4A18610E
CRC32 hash : 4A18610E
CRC32 hash (skip zero) : 7A677C69
AccurateRip v1 signature : B146FCC0
AccurateRip v2 signature : 3FF83C84
->Accurately ripped (v1+v2, confidence 7+6/28)
Statistics
Read error : 0
Jitter error (maybe fixed) : 0
Retry sector count : 0
Damaged sector count : 0
Track 11
Filename : /Users/iihokii/Music/Elysian Fields - 2000 - Queen of the Meadow [FLAC]/11 - Cities Will Fall.flac
Pre-gap length : 00:02:35
Track gain : -3.02 dB
Peak : 0.998932
CRC32 hash (test run) : E66B2DE2
CRC32 hash : E66B2DE2
CRC32 hash (skip zero) : 2CBF6459
AccurateRip v1 signature : 7FF48A59
AccurateRip v2 signature : 8D2989A7
->Accurately ripped (v1+v2, confidence 6+6/27)
Statistics
Read error : 0
Jitter error (maybe fixed) : 0
Retry sector count : 0
Damaged sector count : 0
Track 12
Filename : /Users/iihokii/Music/Elysian Fields - 2000 - Queen of the Meadow [FLAC]/12 - [Untitled].flac
Pre-gap length : 07:34:08
Track gain : 64.81 dB
Peak : 0.000122
CRC32 hash (test run) : CBDB336B
CRC32 hash : CBDB336B
CRC32 hash (skip zero) : A4580DE0
AccurateRip v1 signature : 5BF2A322
AccurateRip v2 signature : 01FE56D1
->Accurately ripped (v1+v2, confidence 7+6/27)
Statistics
Read error : 0
Jitter error (maybe fixed) : 0
Retry sector count : 0
Damaged sector count : 0
No errors occurred
End of status report
-----BEGIN XLD SIGNATURE-----
NuAKp18I8VIY3KcJ2.4r5cz2XKM.i97ku5vPWbwANGjRRfX4w6UUyG3aC5lyD99qUc4kp581q3JiEEonR7wUG8TryuxTB8qBugGK6SG
-----END XLD SIGNATURE-----
[Профиль] [ЛС]
Показать сообщения:    
Ответить на тему

Текущее время: 18-Фев 14:54

Часовой пояс: UTC + 4



Вы не можете начинать темы
Вы не можете отвечать на сообщения
Вы не можете редактировать свои сообщения
Вы не можете удалять свои сообщения
Вы не можете голосовать в опросах
Вы не можете прикреплять файлы к сообщениям
Вы не можете скачивать файлы