(Pop) Наталья Сенчукова - The Best (1999) [FLAC (Image+.cue), lossless]

Ответить на тему
 
Автор Сообщение

Direktor_49 ®

Стаж: 3 года 3 месяца

Сообщений: 206

Откуда: Калининград

Создавать темы 01-Фев-2020 19:21

[Цитировать]

Наталья Сенчукова - The Best- Жанр: [tag]Pop[/tag]
Год выпуска: 1999
Носитель: CD
Производитель: Россия, AR 052
Аудиокодек: [tag]FLAC[/tag]
Тип рипа: Image+.cue
Битрейт: lossless
Продолжительность: 01:14:25
Треклист:
01. Где-то на горячем юге [03:27]
02. Три слова [03:25]
03. Океан любви [03:24]
04. Водолей [03:28]
05. Лодка [03:48]
06. Ты меня обидел [03:39]
07. Пусть будет так [03:32]
08. Птицы [04:12]
09. Небо N 7 [03:15]
10. Не плачьте, девочки [03:50]
11. Кино про любовь [03:54]
12. Я в твоих мечтах [03:45]
Продолжение треклиста
13. Ты не Дон-Жуан [03:48]
14. Доктор Петров [04:56]
15. Пой и танцуй [04:05]
16. Колокольчик [03:48]
17. Кошки-мышки [04:17]
18. Пирожок [03:18]
19. Бедные цветы [03:53]
20. Колыбельная медведицы [02:30]
.log
Exact Audio Copy V1.0 beta 3 from 29. August 2011
Отчёт EAC об извлечении, выполненном 1. февраля 2020, 11:34
Сенчукова Наталья / The Best
Дисковод: Optiarc DVD RW AD-7280S Adapter: 1 ID: 0
Режим чтения : Достоверность
Использование точного потока : Да
Отключение кэша аудио : Да
Использование указателей C2 : Нет
Коррекция смещения при чтении : 48
Способность читать области Lead-in и Lead-out : Нет
Заполнение пропущенных сэмплов тишиной : Да
Удаление блоков с тишиной в начале и конце : Нет
При вычислениях CRC использовались нулевые сэмплы : Да
Интерфейс : Встроенный Win32-интерфейс для Win NT/2000
Выходной формат : Пользовательский кодировщик
Выбранный битрейт : 768 kBit/s
Качество : Высокий
Добавление ID3-тега : Нет
Утилита сжатия : C:\Program Files (x86)\Exact Audio Copy\FLAC\FLAC.EXE
Дополнительные параметры : -8 -V -T "ARTIST=%artist%" -T "TITLE=%title%" -T "ALBUM=%albumtitle%" -T "DATE=%year%" -T "TRACKNUMBER=%tracknr%" -T "GENRE=%genre%" -T "COMMENT=%comment%" -T "BAND=%albuminterpret%" -T "ALBUMARTIST=%albuminterpret%" -T "COMPOSER=%composer%" %haslyrics%--tag-from-file=LYRICS="%lyricsfile%"%haslyrics% -T "DISCNUMBER=%cdnumber%" -T "TOTALDISCS=%totalcds%" -T "TOTALTRACKS=%numtracks%" %hascover%--picture="%coverfile%"%hascover% %source% -o %dest%
TOC извлечённого CD
Трек | Старт | Длительность | Начальный сектор | Конечный сектор
---------------------------------------------------------------------
1 | 0:01.00 | 3:27.22 | 75 | 15621
2 | 3:28.22 | 3:25.59 | 15622 | 31055
3 | 6:54.06 | 3:24.11 | 31056 | 46366
4 | 10:18.17 | 3:28.65 | 46367 | 62031
5 | 13:47.07 | 3:48.26 | 62032 | 79157
6 | 17:35.33 | 3:39.49 | 79158 | 95631
7 | 21:15.07 | 3:32.41 | 95632 | 111572
8 | 24:47.48 | 4:12.25 | 111573 | 130497
9 | 28:59.73 | 3:15.58 | 130498 | 145180
10 | 32:15.56 | 3:50.05 | 145181 | 162435
11 | 36:05.61 | 3:54.73 | 162436 | 180058
12 | 40:00.59 | 3:45.57 | 180059 | 196990
13 | 43:46.41 | 3:48.65 | 196991 | 214155
14 | 47:35.31 | 4:56.42 | 214156 | 236397
15 | 52:31.73 | 4:05.03 | 236398 | 254775
16 | 56:37.01 | 3:48.07 | 254776 | 271882
17 | 60:25.08 | 4:17.35 | 271883 | 291192
18 | 64:42.43 | 3:18.59 | 291193 | 306101
19 | 68:01.27 | 3:53.03 | 306102 | 323579
20 | 71:54.30 | 2:30.53 | 323580 | 334882
Характеристики диапазона извлечения и сообщения об ошибках
Выбранный диапазон
Имя файла D:\РАЗДАЧИ\Сенчукова Наталья-The Best (1999)\Сенчукова Наталья - The Best.wav
Пиковый уровень 100.0 %
Скорость извлечения 8.5 X
Качество диапазона 100.0 %
CRC теста 1CDBD305
CRC копии 1CDBD305
Копирование... OK
Ошибок не произошло
AccurateRip: сводка
Трек 1 : извлечено точно (доверие 1) [4CEC331E] (AR v2)
Трек 2 : извлечено точно (доверие 1) [B86F2D3B] (AR v2)
Трек 3 : извлечено точно (доверие 1) [745F5EC4] (AR v2)
Трек 4 : извлечено точно (доверие 1) [CFC7BC63] (AR v2)
Трек 5 : извлечено точно (доверие 1) [AC9A6F9D] (AR v2)
Трек 6 : извлечено точно (доверие 1) [97B33247] (AR v2)
Трек 7 : извлечено точно (доверие 1) [C7607426] (AR v2)
Трек 8 : извлечено точно (доверие 1) [9E2458DA] (AR v2)
Трек 9 : извлечено точно (доверие 1) [B5847957] (AR v2)
Трек 10 : извлечено точно (доверие 1) [9949000E] (AR v2)
Трек 11 : извлечено точно (доверие 1) [18FD33F2] (AR v2)
Трек 12 : извлечено точно (доверие 1) [616C6C2C] (AR v2)
Трек 13 : извлечено точно (доверие 1) [505552C2] (AR v2)
Трек 14 : извлечено точно (доверие 1) [1D7FAF2F] (AR v2)
Трек 15 : извлечено точно (доверие 1) [BD12BF87] (AR v2)
Трек 16 : извлечено точно (доверие 1) [49EDF932] (AR v2)
Трек 17 : извлечено точно (доверие 1) [71D5FB65] (AR v2)
Трек 18 : извлечено точно (доверие 1) [61E7CA79] (AR v2)
Трек 19 : извлечено точно (доверие 1) [066C0C84] (AR v2)
Трек 20 : извлечено точно (доверие 1) [C8D6E1DF] (AR v2)
Все треки извлечены точно
Конец отчёта
==== Контрольная сумма отчёта 22499AFC926CFDA0DE575FBBE364D036241F6A8E8AD3286648B258A7174F9D5F ====
.cue
REM GENRE Pop
REM DATE 1999
REM DISCID 2C117014
REM COMMENT "ExactAudioCopy v1.0b3"
PERFORMER "Сенчукова Наталья"
TITLE "The Best"
FILE "Сенчукова Наталья - The Best.flac" WAVE
TRACK 01 AUDIO
TITLE "Где-то на горячем юге"
PERFORMER "Сенчукова Наталья"
INDEX 00 00:00:00
INDEX 01 00:01:00
TRACK 02 AUDIO
TITLE "Три слова"
PERFORMER "Сенчукова Наталья"
INDEX 00 03:26:62
INDEX 01 03:28:22
TRACK 03 AUDIO
TITLE "Океан любви"
PERFORMER "Сенчукова Наталья"
INDEX 00 06:52:46
INDEX 01 06:54:06
TRACK 04 AUDIO
TITLE "Водолей"
PERFORMER "Сенчукова Наталья"
INDEX 00 10:16:57
INDEX 01 10:18:17
TRACK 05 AUDIO
TITLE "Лодка"
PERFORMER "Сенчукова Наталья"
INDEX 00 13:45:47
INDEX 01 13:47:07
TRACK 06 AUDIO
TITLE "Ты меня обидел"
PERFORMER "Сенчукова Наталья"
INDEX 00 17:33:73
INDEX 01 17:35:33
TRACK 07 AUDIO
TITLE "Пусть будет так"
PERFORMER "Сенчукова Наталья"
INDEX 00 21:13:47
INDEX 01 21:15:07
TRACK 08 AUDIO
TITLE "Птицы"
PERFORMER "Сенчукова Наталья"
INDEX 00 24:46:13
INDEX 01 24:47:48
TRACK 09 AUDIO
TITLE "Небо N 7"
PERFORMER "Сенчукова Наталья"
INDEX 00 28:58:38
INDEX 01 28:59:73
TRACK 10 AUDIO
TITLE "Не плачьте, девочки"
PERFORMER "Сенчукова Наталья"
INDEX 00 32:14:21
INDEX 01 32:15:56
TRACK 11 AUDIO
TITLE "Кино про любовь"
PERFORMER "Сенчукова Наталья"
INDEX 00 36:04:26
INDEX 01 36:05:61
TRACK 12 AUDIO
TITLE "Я в твоих мечтах"
PERFORMER "Сенчукова Наталья"
INDEX 00 39:59:24
INDEX 01 40:00:59
TRACK 13 AUDIO
TITLE "Ты не Дон-Жуан"
PERFORMER "Сенчукова Наталья"
INDEX 00 43:45:06
INDEX 01 43:46:41
TRACK 14 AUDIO
TITLE "Доктор Петров"
PERFORMER "Сенчукова Наталья"
INDEX 00 47:33:71
INDEX 01 47:35:31
TRACK 15 AUDIO
TITLE "Пой и танцуй"
PERFORMER "Сенчукова Наталья"
INDEX 00 52:30:38
INDEX 01 52:31:73
TRACK 16 AUDIO
TITLE "Колокольчик"
PERFORMER "Сенчукова Наталья"
INDEX 00 56:35:41
INDEX 01 56:37:01
TRACK 17 AUDIO
TITLE "Кошки-мышки"
PERFORMER "Сенчукова Наталья"
INDEX 00 60:23:48
INDEX 01 60:25:08
TRACK 18 AUDIO
TITLE "Пирожок"
PERFORMER "Сенчукова Наталья"
INDEX 00 64:41:08
INDEX 01 64:42:43
TRACK 19 AUDIO
TITLE "Бедные цветы"
PERFORMER "Сенчукова Наталья"
INDEX 00 67:59:67
INDEX 01 68:01:27
TRACK 20 AUDIO
TITLE "Колыбельная медведицы"
PERFORMER "Сенчукова Наталья"
INDEX 00 71:52:70
INDEX 01 71:54:30
[Профиль] [ЛС]
Показать сообщения:    
Ответить на тему

Текущее время: 18-Фев 14:04

Часовой пояс: UTC + 4



Вы не можете начинать темы
Вы не можете отвечать на сообщения
Вы не можете редактировать свои сообщения
Вы не можете удалять свои сообщения
Вы не можете голосовать в опросах
Вы не можете прикреплять файлы к сообщениям
Вы не можете скачивать файлы