Veronique Jannot - Le Meilleur De Veronique Jannot (2002) [FLAC|Lossless|image + .cue] <Synth-pop, Chanson>

Ответить на тему
 
Автор Сообщение

Direktor_49 ®

Стаж: 3 года 3 месяца

Сообщений: 206

Откуда: Калининград

Создавать темы 16-Янв-2020 21:32

[Цитировать]

Veronique Jannot - Le Meilleur De Veronique Jannot (2002) - Жанр: Synth-pop, Chanson
Издание: Choice Of - 200126-2
Источник: (релизёр:) s-p-m2009
Продолжительность: 01:07:38
Кодек: FLAC
Битрейт: Lossless
Тип рипа: image + .cue
Треклист:
1 Désir, Désir (Part 1) 4:55
2 L'Atlantique 3:30
3 Aviateur 4:27
4 Si T'as Pas Compris 3:57
5 Love Me Forever 3:41
6 J'Ai Fait L'Amour Avec La Mer 2:43
7 Vague A L'Ame 3:02
8 C'Est Trop Facile De Dire Je T'Aime 3:05
9 Comédie, Comédie 3:20
10 La Première Scène 3:36
11 Fragile 3:27
12 Reviens Me Dire 4:17
Продолжение Треклиста:
13 Ma Repentance 3:27
14 Chagrin 4:01
15 Désir, Désir (Part 2) 4:41
Bonus Tracks (Série TV : Pause Café)
16 On Entre Dans La Vie 2:59
17 Tous Les Enfants Ont Besoin De Rêver 2:51
18 Mon Héros Préféré 3:37
19 Joelle Mazart 1:31
Отчёт EAC:
Exact Audio Copy V1.0 beta 3 from 29. August 2011
Отчёт EAC об извлечении, выполненном 31. декабря 2019, 11:11
Veronique Jannot / Le Meilleur De Veronique Jannot
Дисковод: TSSTcorpCDDVDW SH-224DB   Adapter: 1  ID: 0
Режим чтения                 : Достоверность
Использование точного потока : Да
Отключение кэша аудио        : Да
Использование указателей C2  : Нет
Коррекция смещения при чтении                     : 6
Способность читать области Lead-in и Lead-out     : Нет
Заполнение пропущенных сэмплов тишиной            : Да
Удаление блоков с тишиной в начале и конце        : Нет
При вычислениях CRC использовались нулевые сэмплы : Да
Интерфейс                                         : Встроенный Win32-интерфейс для Win NT/2000
Выходной формат          : Пользовательский кодировщик
Выбранный битрейт        : 128 kBit/s
Качество                 : Высокий
Добавление ID3-тега      : Нет
Утилита сжатия           : C:\Program Files (x86)\FLAC\flac.exe
Дополнительные параметры : -V -8 -T "Date=%year%" -T "Genre=%genre%" %source%
TOC извлечённого CD
     Трек |   Старт  | Длительность | Начальный сектор | Конечный сектор
    ---------------------------------------------------------------------
       1  |  0:00.00 |    4:56.20   |           0      |      22219
       2  |  4:56.20 |    3:30.55   |       22220      |      38024
       3  |  8:27.00 |    4:27.73   |       38025      |      58122
       4  | 12:54.73 |    3:58.69   |       58123      |      76041
       5  | 16:53.67 |    3:43.56   |       76042      |      92822
       6  | 20:37.48 |    2:44.15   |       92823      |     105137
       7  | 23:21.63 |    3:02.69   |      105138      |     118856
       8  | 26:24.57 |    3:06.37   |      118857      |     132843
       9  | 29:31.19 |    3:20.74   |      132844      |     147917
      10  | 32:52.18 |    3:38.40   |      147918      |     164307
      11  | 36:30.58 |    3:29.13   |      164308      |     179995
      12  | 39:59.71 |    4:19.32   |      179996      |     199452
      13  | 44:19.28 |    3:29.28   |      199453      |     215155
      14  | 47:48.56 |    4:01.71   |      215156      |     233301
      15  | 51:50.52 |    4:41.70   |      233302      |     254446
      16  | 56:32.47 |    3:01.43   |      254447      |     268064
      17  | 59:34.15 |    2:52.55   |      268065      |     281019
      18  | 62:26.70 |    3:39.12   |      281020      |     297456
      19  | 66:06.07 |    1:31.34   |      297457      |     304315
Характеристики диапазона извлечения и сообщения об ошибках
Выбранный диапазон
     Имя файла C:\EAC\Veronique Jannot ‎– Le Meilleur De Veronique Jannot - 2002 CD\Veronique Jannot - Le Meilleur De Veronique Jannot.wav
     Пиковый уровень 99.3 %
     Скорость извлечения 3.2 X
     Качество диапазона 100.0 %
     CRC теста A885B0B5
     CRC копии A885B0B5
     Копирование... OK
Ошибок не произошло
AccurateRip: сводка
Трек  1  точность не определена (достоверность 2)  [1494A8DA], AccurateRip вернул [BD172760]  (AR v2)
Трек  2  точность не определена (достоверность 2)  [76B7BB12], AccurateRip вернул [BBFEE388]  (AR v2)
Трек  3  точность не определена (достоверность 2)  [02FC289B], AccurateRip вернул [FB8A0520]  (AR v2)
Трек  4  точность не определена (достоверность 2)  [8350BB69], AccurateRip вернул [61016223]  (AR v2)
Трек  5  точность не определена (достоверность 2)  [DFF7C0C1], AccurateRip вернул [C93F81EF]  (AR v2)
Трек  6  точность не определена (достоверность 2)  [0E09B025], AccurateRip вернул [CD20A297]  (AR v2)
Трек  7  точность не определена (достоверность 2)  [F33E9903], AccurateRip вернул [33CA14D1]  (AR v2)
Трек  8  точность не определена (достоверность 2)  [9EC668F8], AccurateRip вернул [FF3178E2]  (AR v2)
Трек  9  точность не определена (достоверность 2)  [D58213C2], AccurateRip вернул [B376BF3C]  (AR v2)
Трек 10  точность не определена (достоверность 2)  [605C4A6A], AccurateRip вернул [84C2DAAF]  (AR v2)
Трек 11  точность не определена (достоверность 2)  [0911FE2B], AccurateRip вернул [7CC32678]  (AR v2)
Трек 12  точность не определена (достоверность 2)  [DE021BED], AccurateRip вернул [A8D8FFD3]  (AR v2)
Трек 13  точность не определена (достоверность 2)  [7E53B8F9], AccurateRip вернул [93D0F36B]  (AR v2)
Трек 14  точность не определена (достоверность 2)  [C88E8CE9], AccurateRip вернул [A460048E]  (AR v2)
Трек 15  точность не определена (достоверность 2)  [9165BBB3], AccurateRip вернул [9E3BB2BD]  (AR v2)
Трек 16  точность не определена (достоверность 2)  [934CEE7A], AccurateRip вернул [1A4D0878]  (AR v2)
Трек 17  точность не определена (достоверность 2)  [9B803571], AccurateRip вернул [FADFE049]  (AR v2)
Трек 18  точность не определена (достоверность 2)  [08D487A5], AccurateRip вернул [81F06845]  (AR v2)
Трек 19  точность не определена (достоверность 2)  [07019F24], AccurateRip вернул [D91C4047]  (AR v2)
Ни один трек не прошёл проверки на точность
В вашей базе может быть иной вариант штамповки диска
Конец отчёта
==== Контрольная сумма отчёта 82B67A4CD4D90E7593C0C011E72D404C36FB2A9846FB03482DDA15BD3EC61BB1 ====
[Профиль] [ЛС]
Показать сообщения:    
Ответить на тему

Текущее время: 18-Фев 14:03

Часовой пояс: UTC + 4



Вы не можете начинать темы
Вы не можете отвечать на сообщения
Вы не можете редактировать свои сообщения
Вы не можете удалять свои сообщения
Вы не можете голосовать в опросах
Вы не можете прикреплять файлы к сообщениям
Вы не можете скачивать файлы