Хорошие мальчики / Good Boys (Джин Ступницки) [2019, Комедия, приключения, BDRemux 1080p] [DUB] [iTunes]

Ответить на тему
 
Автор Сообщение

Direktor_49 ®

Стаж: 3 года 2 месяца

Сообщений: 184

Откуда: Калининград

Создавать темы 15-Янв-2020 13:34

[Цитировать]

Информация о фильме
Название: Хорошие мальчики
Оригинальное название: Good Boys
Год выхода: 2019
Жанр: Комедия, приключения
Режиссер: Джин Ступницки
В ролях: Джейкоб Трамбле, Кит Л. Уильямс, Брэйди Нун, Молли Гордон, Мидори Френсис, Исаак Ванг, Милли Дэвис, Джош Барклай Карас, Уилл Форте, Мариесса Портеланс

О фильме: История троих друзей-шестиклассников, планирующих посетить крутую вечеринку. Но прежде они должны хорошенько подготовиться, чтобы не ударить в грязь лицом. Так начинается безумное путешествие по долине Сан-Фернандо, в котором надо вернуть наркотики, украсть пиво и починить сломанного дрона - все это нужно сделать, пока родители не вернулись домой.
Страна: США
Студия: Good Universe, Point Grey Pictures, Universal Pictures
Продолжительность: 01:29:37
Перевод: Дублированный | iTunes
Качество: BDRip 720p
Видео: MPEG-4 AVC, 1280x536, 31.3 Mbit/s, 23.976 fps
Аудио #01: 48 kHz, AC3, 5.1, 384 Kbps | iTunes | RUS |
Аудио #02: 48 kHz, AC3, 2.0, 192 Kbps | iTunes | UKR |
Аудио #03: 48 kHz, DTS-HD MA, 5.1, 3425 Kbps | Оригинал | ENG |
Субтитры: Русские (Forced, full), английские
Скриншоты:
MI
General
Unique ID : 260556937777775981516345516544100644389 (0xC40570DCC079DA9699305F6DAAD3B625)
Complete name : E:Video111Good.Boys.2019.BDREMUX.1080p.seleZen.mkv
Format : Matroska
Format version : Version 4
File size : 22.1 GiB
Duration : 1 h 29 min
Overall bit rate mode : Variable
Overall bit rate : 35.3 Mb/s
Movie name : Good Boys 2019 from селезень
Encoded date : UTC 2020-01-11 22:57:40
Writing application : mkvmerge v40.0.0 ('Old Town Road + Pony') 64-bit
Writing library : libebml v1.3.9 + libmatroska v1.5.2
Video
ID : 1
Format : AVC
Format/Info : Advanced Video Codec
Format profile : High@L4.1
Format settings : CABAC / 4 Ref Frames
Format settings, CABAC : Yes
Format settings, Reference : 4 frames
Format settings, GOP : M=3, N=12
Codec ID : V_MPEG4/ISO/AVC
Duration : 1 h 29 min
Bit rate mode : Variable
Bit rate : 31.3 Mb/s
Maximum bit rate : 34.7 Mb/s
Width : 1 920 pixels
Height : 1 080 pixels
Display aspect ratio : 16:9
Frame rate mode : Constant
Frame rate : 23.976 (24000/1001) FPS
Color space : YUV
Chroma subsampling : 4:2:0
Bit depth : 8 bits
Scan type : Progressive
Bits/(Pixel*Frame) : 0.629
Stream size : 19.6 GiB (89%)
Language : English
Default : No
Forced : No
Audio #1
ID : 2
Format : AC-3
Format/Info : Audio Coding 3
Commercial name : Dolby Digital
Codec ID : A_AC3
Duration : 1 h 29 min
Bit rate mode : Constant
Bit rate : 384 kb/s
Channel(s) : 6 channels
Channel layout : L R C LFE Ls Rs
Sampling rate : 48.0 kHz
Frame rate : 31.250 FPS (1536 SPF)
Compression mode : Lossy
Stream size : 246 MiB (1%)
Title : iTunes
Language : Russian
Service kind : Complete Main
Default : Yes
Forced : Yes
Audio #2
ID : 3
Format : AC-3
Format/Info : Audio Coding 3
Commercial name : Dolby Digital
Codec ID : A_AC3
Duration : 1 h 29 min
Bit rate mode : Constant
Bit rate : 192 kb/s
Channel(s) : 2 channels
Channel layout : L R
Sampling rate : 48.0 kHz
Frame rate : 31.250 FPS (1536 SPF)
Compression mode : Lossy
Stream size : 123 MiB (1%)
Title : iTunes
Language : Ukrainian
Service kind : Complete Main
Default : No
Forced : No
Audio #3
ID : 4
Format : DTS XLL
Format/Info : Digital Theater Systems
Commercial name : DTS-HD Master Audio
Codec ID : A_DTS
Duration : 1 h 29 min
Bit rate mode : Variable
Bit rate : 3 425 kb/s
Channel(s) : 6 channels
Channel layout : C L R Ls Rs LFE
Sampling rate : 48.0 kHz
Frame rate : 93.750 FPS (512 SPF)
Bit depth : 24 bits
Compression mode : Lossless
Stream size : 2.14 GiB (10%)
Title : Original
Language : English
Default : No
Forced : No
Text #1
ID : 5
Format : UTF-8
Codec ID : S_TEXT/UTF8
Codec ID/Info : UTF-8 Plain Text
Duration : 1 h 28 min
Bit rate : 3 b/s
Count of elements : 53
Stream size : 2.17 KiB (0%)
Title : Forced
Language : Russian
Default : Yes
Forced : Yes
Text #2
ID : 6
Format : UTF-8
Codec ID : S_TEXT/UTF8
Codec ID/Info : UTF-8 Plain Text
Duration : 1 h 28 min
Bit rate : 101 b/s
Count of elements : 1454
Stream size : 65.9 KiB (0%)
Title : Full
Language : Russian
Default : No
Forced : No
Text #3
ID : 7
Format : UTF-8
Codec ID : S_TEXT/UTF8
Codec ID/Info : UTF-8 Plain Text
Duration : 1 h 22 min
Bit rate : 82 b/s
Count of elements : 1554
Stream size : 49.3 KiB (0%)
Language : English
Default : No
Forced : No
Menu
00:00:00.000 : en:00:00:00.000
00:03:54.025 : en:00:03:54.025
00:09:00.165 : en:00:09:00.165
00:11:51.169 : en:00:11:51.169
00:15:08.658 : en:00:15:08.658
00:17:29.840 : en:00:17:29.840
00:21:20.696 : en:00:21:20.696
00:27:27.646 : en:00:27:27.646
00:31:25.675 : en:00:31:25.675
00:35:06.104 : en:00:35:06.104
00:40:11.868 : en:00:40:11.868
00:47:16.208 : en:00:47:16.208
00:51:01.183 : en:00:51:01.183
00:57:54.388 : en:00:57:54.388
01:02:27.953 : en:01:02:27.953
01:06:46.544 : en:01:06:46.544
01:09:56.901 : en:01:09:56.901
01:14:19.497 : en:01:14:19.497
01:20:00.796 : en:01:20:00.796
01:23:35.427 : en:01:23:35.427
[Профиль] [ЛС]
Показать сообщения:    
Ответить на тему

Текущее время: 25-Янв 18:21

Часовой пояс: UTC + 4



Вы не можете начинать темы
Вы не можете отвечать на сообщения
Вы не можете редактировать свои сообщения
Вы не можете удалять свои сообщения
Вы не можете голосовать в опросах
Вы не можете прикреплять файлы к сообщениям
Вы не можете скачивать файлы