(House, Synth-pop) Hongkong Syndikat - Sugarcane (1998) [FLAC (Image+.cue), lossless]

Ответить на тему
 
Автор Сообщение

Direktor_49 ®

Стаж: 3 года 10 месяцев

Сообщений: 314

Откуда: Калининград

Создавать темы 15-Янв-2020 12:12

[Цитировать]

Hongkong Syndikat - Sugarcane- Жанр: House, Synth-pop
Год выпуска: 1998
Носитель: CD
Производитель: Germany, Da n.c.e. - 870599-2
Аудиокодек: FLAC
Тип рипа: Image+.cue
Битрейт: lossless
Продолжительность: 00:17:47
Треклист:
1 Sugarcane (Radio Mix) 3:45
2 Sugarcane (Stewardess Mix) 5:52
Bonustracks
3 Little Things 3:20
4 Baby, Can't U See 3:55
.log
Exact Audio Copy V1.0 beta 3 from 29. August 2011
Отчёт EAC об извлечении, выполненном 14. января 2020, 23:31
Hongkong Syndikat / Sugarcane
Дисковод: TSSTcorpCDDVDW SH-224DB Adapter: 1 ID: 0
Режим чтения : Достоверность
Использование точного потока : Да
Отключение кэша аудио : Да
Использование указателей C2 : Нет
Коррекция смещения при чтении : 6
Способность читать области Lead-in и Lead-out : Нет
Заполнение пропущенных сэмплов тишиной : Да
Удаление блоков с тишиной в начале и конце : Нет
При вычислениях CRC использовались нулевые сэмплы : Да
Интерфейс : Встроенный Win32-интерфейс для Win NT/2000
Выходной формат : Пользовательский кодировщик
Выбранный битрейт : 128 kBit/s
Качество : Высокий
Добавление ID3-тега : Нет
Утилита сжатия : C:\Program Files (x86)\FLAC\flac.exe
Дополнительные параметры : -V -8 -T "Date=%year%" -T "Genre=%genre%" %source%
TOC извлечённого CD
Трек | Старт | Длительность | Начальный сектор | Конечный сектор
---------------------------------------------------------------------
1 | 0:00.00 | 3:48.00 | 0 | 17099
2 | 3:48.00 | 6:30.00 | 17100 | 46349
3 | 10:18.00 | 3:22.00 | 46350 | 61499
4 | 13:40.00 | 4:07.00 | 61500 | 80024
Характеристики диапазона извлечения и сообщения об ошибках
Выбранный диапазон
Имя файла C:\EAC\Hongkong Syndikat - Sugarcane - 1998 - CDM\Hongkong Syndikat - Sugarcane.wav
Пиковый уровень 96.9 %
Скорость извлечения 2.2 X
Качество диапазона 100.0 %
CRC теста F232F573
CRC копии F232F573
Копирование... OK
Ошибок не произошло
AccurateRip: сводка
Трек 1 отсутствует в базе данных
Трек 2 отсутствует в базе данных
Трек 3 отсутствует в базе данных
Трек 4 отсутствует в базе данных
Ни одного трека нет в базе AccurateRip
Конец отчёта
==== Контрольная сумма отчёта ACAFFB534A607A435DE4498420A6D4BDBF0AB500DB1351B00F24D590ECE1F865 ====
.cue
REM DATE 1998
REM DISCID 1B042B04
REM COMMENT "ExactAudioCopy v1.0b3"
PERFORMER "Hongkong Syndikat"
TITLE "Sugarcane"
FILE "Hongkong Syndikat - Sugarcane.flac" WAVE
TRACK 01 AUDIO
TITLE "Sugarcane (Radio Mix)"
PERFORMER "Hongkong Syndikat"
INDEX 01 00:00:00
TRACK 02 AUDIO
TITLE "Sugarcane (Stewardess Mix)"
PERFORMER "Hongkong Syndikat"
INDEX 00 03:46:01
INDEX 01 03:48:00
TRACK 03 AUDIO
TITLE "Little Things (Bonustrack)"
PERFORMER "Hongkong Syndikat"
INDEX 00 10:16:00
INDEX 01 10:18:00
TRACK 04 AUDIO
TITLE "Baby, Can't U See (Bonustrack)"
PERFORMER "Hongkong Syndikat"
INDEX 00 13:38:00
INDEX 01 13:40:00
[Профиль] [ЛС]
Показать сообщения:    
Ответить на тему

Текущее время: 26-Сен 08:16

Часовой пояс: UTC + 3



Вы не можете начинать темы
Вы не можете отвечать на сообщения
Вы не можете редактировать свои сообщения
Вы не можете удалять свои сообщения
Вы не можете голосовать в опросах
Вы не можете прикреплять файлы к сообщениям
Вы не можете скачивать файлы