(Chanson) [CD] Новиков Александр - В захолустном ресторане - 2003, FLAC (image+.cue), lossless

Ответить на тему
 
Автор Сообщение

Direktor_49 ®

Стаж: 3 года 10 месяцев

Сообщений: 314

Откуда: Калининград

Создавать темы 12-Янв-2020 18:06

[Цитировать]

Новиков Александр - В захолустном ресторане
Жанр: Chanson
Носитель: CD
Страна-производитель диска (релиза): Россия
Год издания: 2003
Издатель (лейбл): Мистерия Паблишинг
Номер по каталогу: MZ 160-2
Страна исполнителя (группы): Россия
Аудиокодек: FLAC (*.flac)
Тип рипа: image+.cue
Продолжительность: 00:50:37
Источник: собственный рип
Наличие сканов в содержимом раздачи: да
Треклист:
01. В захолустном ресторане [04:22]
02. Песнь о честном менте [03:24]
03. Сватовство жигана [04:38]
04. Косой [03:18]
05. О козле и эктрасенсах [03:55]
06. Роза [04:06]
07. О профессии древней [03:49]
08. Безалкогольная свадьба [04:47]
09. Веня-корешок [03:35]
10. Галерка, ша! [02:54]
11. Ах, Одесса [03:41]
12. Поймали вора [02:59]
13. О женском атлетизме [05:04]
Лог создания рипа
Exact Audio Copy V1.0 beta 3 from 29. August 2011
Отчёт EAC об извлечении, выполненном 3. января 2020, 10:39
Новиков Александр / В захолустном ресторане
Дисковод: Optiarc DVD RW AD-7280S Adapter: 1 ID: 0
Режим чтения : Достоверность
Использование точного потока : Да
Отключение кэша аудио : Да
Использование указателей C2 : Нет
Коррекция смещения при чтении : 48
Способность читать области Lead-in и Lead-out : Нет
Заполнение пропущенных сэмплов тишиной : Да
Удаление блоков с тишиной в начале и конце : Нет
При вычислениях CRC использовались нулевые сэмплы : Да
Интерфейс : Встроенный Win32-интерфейс для Win NT/2000
Выходной формат : Пользовательский кодировщик
Выбранный битрейт : 768 kBit/s
Качество : Высокий
Добавление ID3-тега : Нет
Утилита сжатия : C:\Program Files (x86)\Exact Audio Copy\FLAC\FLAC.EXE
Дополнительные параметры : -8 -V -T "ARTIST=%artist%" -T "TITLE=%title%" -T "ALBUM=%albumtitle%" -T "DATE=%year%" -T "TRACKNUMBER=%tracknr%" -T "GENRE=%genre%" -T "COMMENT=%comment%" -T "BAND=%albuminterpret%" -T "ALBUMARTIST=%albuminterpret%" -T "COMPOSER=%composer%" %haslyrics%--tag-from-file=LYRICS="%lyricsfile%"%haslyrics% -T "DISCNUMBER=%cdnumber%" -T "TOTALDISCS=%totalcds%" -T "TOTALTRACKS=%numtracks%" %hascover%--picture="%coverfile%"%hascover% %source% -o %dest%
TOC извлечённого CD
Трек | Старт | Длительность | Начальный сектор | Конечный сектор
---------------------------------------------------------------------
1 | 0:00.00 | 4:22.04 | 0 | 19653
2 | 4:22.04 | 3:24.05 | 19654 | 34958
3 | 7:46.09 | 4:38.04 | 34959 | 55812
4 | 12:24.13 | 3:18.67 | 55813 | 70729
5 | 15:43.05 | 3:55.14 | 70730 | 88368
6 | 19:38.19 | 4:06.44 | 88369 | 106862
7 | 23:44.63 | 3:49.72 | 106863 | 124109
8 | 27:34.60 | 4:47.34 | 124110 | 145668
9 | 32:22.19 | 3:35.13 | 145669 | 161806
10 | 35:57.32 | 2:54.23 | 161807 | 174879
11 | 38:51.55 | 3:41.21 | 174880 | 191475
12 | 42:33.01 | 2:59.40 | 191476 | 204940
13 | 45:32.41 | 5:04.56 | 204941 | 227796
Характеристики диапазона извлечения и сообщения об ошибках
Выбранный диапазон
Имя файла D:\РАЗДАЧИ\Новиков Александр-В захолустном ресторане (2003)\Новиков Александр - В захолустном ресторане.wav
Пиковый уровень 98.1 %
Скорость извлечения 2.9 X
Качество диапазона 100.0 %
CRC теста 43829115
CRC копии 43829115
Копирование... OK
Ошибок не произошло
AccurateRip: сводка
Трек 1 отсутствует в базе данных
Трек 2 отсутствует в базе данных
Трек 3 отсутствует в базе данных
Трек 4 отсутствует в базе данных
Трек 5 отсутствует в базе данных
Трек 6 отсутствует в базе данных
Трек 7 отсутствует в базе данных
Трек 8 отсутствует в базе данных
Трек 9 отсутствует в базе данных
Трек 10 отсутствует в базе данных
Трек 11 отсутствует в базе данных
Трек 12 отсутствует в базе данных
Трек 13 отсутствует в базе данных
Ни одного трека нет в базе AccurateRip
Конец отчёта
==== Контрольная сумма отчёта 13C01549C2BDF78D5AD4A7F4BE54829DA5D396D492B8274987F2874A3F739F77 ====
Содержание индексной карты (.CUE)
REM GENRE Chanson
REM DATE 2003
REM DISCID BB0BDD0D
REM COMMENT "ExactAudioCopy v1.0b3"
PERFORMER "Новиков Александр"
TITLE "В захолустном ресторане"
FILE "Новиков Александр - В захолустном ресторане.flac" WAVE
TRACK 01 AUDIO
TITLE "В захолустном ресторане"
PERFORMER "Новиков Александр"
INDEX 01 00:00:00
TRACK 02 AUDIO
TITLE "Песнь о честном менте"
PERFORMER "Новиков Александр"
INDEX 01 04:22:04
TRACK 03 AUDIO
TITLE "Сватовство жигана"
PERFORMER "Новиков Александр"
INDEX 01 07:46:09
TRACK 04 AUDIO
TITLE "Косой"
PERFORMER "Новиков Александр"
INDEX 01 12:24:13
TRACK 05 AUDIO
TITLE "О козле и эктрасенсах"
PERFORMER "Новиков Александр"
INDEX 01 15:43:05
TRACK 06 AUDIO
TITLE "Роза"
PERFORMER "Новиков Александр"
INDEX 01 19:38:19
TRACK 07 AUDIO
TITLE "О профессии древней"
PERFORMER "Новиков Александр"
INDEX 01 23:44:63
TRACK 08 AUDIO
TITLE "Безалкогольная свадьба"
PERFORMER "Новиков Александр"
INDEX 01 27:34:60
TRACK 09 AUDIO
TITLE "Веня-корешок"
PERFORMER "Новиков Александр"
INDEX 01 32:22:19
TRACK 10 AUDIO
TITLE "Галерка, ша!"
PERFORMER "Новиков Александр"
INDEX 01 35:57:32
TRACK 11 AUDIO
TITLE "Ах, Одесса"
PERFORMER "Новиков Александр"
INDEX 01 38:51:55
TRACK 12 AUDIO
TITLE "Поймали вора"
PERFORMER "Новиков Александр"
INDEX 01 42:33:01
TRACK 13 AUDIO
TITLE "О женском атлетизме"
PERFORMER "Новиков Александр"
INDEX 01 45:32:41
[Профиль] [ЛС]

Борисыч

Стаж: 1 год 10 месяцев

Сообщений: 1229

Создавать темы 12-Янв-2020 18:13 (спустя 7 минут)

[Цитировать]

В захолустном ресторане - эта песня шедевр.
[Профиль] [ЛС]

Direktor_49 ®

Стаж: 3 года 10 месяцев

Сообщений: 314

Откуда: Калининград

Создавать темы 12-Янв-2020 18:16 (спустя 3 минуты)

[Цитировать]

68650В захолустном ресторане - эта песня шедевр.
Да Борисыч - это так...
[Профиль] [ЛС]

Vertolet

Стаж: 5 лет 8 месяцев

Сообщений: 3

Создавать темы 14-Янв-2020 18:11 (спустя 1 день 23 часа)

[Цитировать]

Низкий поклон, господа....
[Профиль] [ЛС]
Показать сообщения:    
Ответить на тему

Текущее время: 26-Сен 08:59

Часовой пояс: UTC + 3



Вы не можете начинать темы
Вы не можете отвечать на сообщения
Вы не можете редактировать свои сообщения
Вы не можете удалять свои сообщения
Вы не можете голосовать в опросах
Вы не можете прикреплять файлы к сообщениям
Вы не можете скачивать файлы