Мысленный волк (Валерия Гай Германика) [2019, Россия, фэнтези, драма, фильм-нуар, WEB-DL 1080p] Original Rus

Ответить на тему
 
Автор Сообщение

nickson-82 ®

Стаж: 7 лет

Сообщений: 1189

Создавать темы 01-Янв-2020 13:45

[Цитировать]

Мысленный волк
Страна: Россия
Студия: Leos Film
Жанр: фэнтези, драма, фильм-нуар
Год выпуска: 2019
Продолжительность: 01:08:26
Перевод: Не требуется
Субтитры: нет
Оригинальная аудиодорожка: русский
Режиссёр: Валерия Гай Германика
В ролях: Юлия Высоцкая, Лиза Климова, Фёдор Лавров, Юрий Трубин, Ася Озтюрк, Иван Дранощук
Описание: Зима, лунная ночь… Две женщины с ребенком пробираются сквозь лесную чащу. А где-то рядом в поисках жертвы рыщет волк-оборотень. То ли зверь, то ли человек, то ли фантом…

Кинопоиск
Sample
Тип релиза: WEB-DL 1080p - iTunes-BLUEBIRD
Контейнер: MKV
Видео: MPEG4 AVC Video, H264, 2.40:1, 1920x804, 24 fps, 4478 kbps
Аудио: Russian (AC3, 6 ch, 384 kbps, 16 bits, 48.0 KHz) - оригинал
MediaInfo
General
Unique ID : 235841358478985784310977401531637002746 (0xB16D64B89CD1A5F88C7796335E3D71FA)
Complete name : D:\MIND_WOLF_2019_WEB-DL_1080p-BLUEBIRD.mkv
Format : Matroska
Format version : Version 4 / Version 2
File size : 2.37 GiB
Duration : 1 h 8 min
Overall bit rate : 4 960 kb/s
Movie name : MIND_WOLF_2019_WEB-DL_1080p-BLUEBIRD
Encoded date : UTC 2019-12-31 19:32:13
Writing application : mkvmerge v6.9.1 ('Blue Panther') 32bit built on Apr 18 2014 18:15:44
Writing library : libebml v1.3.0 + libmatroska v1.4.1
Cover : Yes
Attachments : cover3.png
Video
ID : 1
Format : AVC
Format/Info : Advanced Video Codec
Format profile : High@L4
Format settings : CABAC / 5 Ref Frames
Format settings, CABAC : Yes
Format settings, ReFrames : 5 frames
Codec ID : V_MPEG4/ISO/AVC
Duration : 1 h 8 min
Bit rate : 4 478 kb/s
Width : 1 920 pixels
Height : 804 pixels
Display aspect ratio : 2.40:1
Frame rate mode : Constant
Frame rate : 24.000 FPS
Color space : YUV
Chroma subsampling : 4:2:0
Bit depth : 8 bits
Scan type : Progressive
Bits/(Pixel*Frame) : 0.121
Stream size : 2.14 GiB (90%)
Title : MIND_WOLF_2019_WEB-DL_1080p-BLUEBIRD
Language : English
Default : Yes
Forced : No
Color range : Limited
Color primaries : BT.709
Transfer characteristics : BT.709
Matrix coefficients : BT.709
Audio
ID : 2
Format : AC-3
Format/Info : Audio Coding 3
Codec ID : A_AC3
Duration : 1 h 8 min
Bit rate mode : Constant
Bit rate : 384 kb/s
Channel(s) : 6 channels
Channel positions : Front: L C R, Side: L R, LFE
Sampling rate : 48.0 kHz
Frame rate : 31.250 FPS (1536 SPF)
Bit depth : 16 bits
Compression mode : Lossy
Stream size : 188 MiB (8%)
Title : [ORIGINAL] DD 5.1 @ 384 kbps (iTunes)
Language : Russian
Service kind : Complete Main
Default : Yes
Forced : No
Menu
00:00:00.000 : en:Глава 1
00:06:52.958 : en:Глава 2
00:14:29.833 : en:Глава 3
00:20:19.666 : en:Глава 4
00:28:34.666 : en:Глава 5
00:36:47.374 : en:Глава 6
00:44:29.082 : en:Глава 7
00:51:06.373 : en:Глава 8
00:57:28.289 : en:Глава 9
Скриншоты
[Профиль] [ЛС]
Показать сообщения:    
Ответить на тему

Текущее время: 29-Фев 12:43

Часовой пояс: UTC + 4



Вы не можете начинать темы
Вы не можете отвечать на сообщения
Вы не можете редактировать свои сообщения
Вы не можете удалять свои сообщения
Вы не можете голосовать в опросах
Вы не можете прикреплять файлы к сообщениям
Вы не можете скачивать файлы