Magnus Lindgren - Stockholm Underground (2017) [FLAC|Lossless|tracks + .cue] <Jazz-Funk, Smooth Jazz>

Ответить на тему
 
Автор Сообщение

Direktor_49 ®

Стаж: 3 года 2 месяца

Сообщений: 185

Откуда: Калининград

Создавать темы 14-Дек-2019 13:49

[Цитировать]

Magnus Lindgren - Stockholm Underground (2017) - Жанр: Jazz-Funk, Smooth Jazz
Издание: ACT Music - ACT 9846-2
Источник: Entrimo
Продолжительность: 00:52:00
Кодек: FLAC
Битрейт: Lossless
Тип рипа: tracks + .cue
Треклист:
01. Fluting (Lindgren) - 5:59
02. Penny Blue (Lindgren) - 3:39
03. Chain of Fools (Covay) - 3:53
04. Winter Wisdom (Lindgren-Yttling) - 5:31
05. A Whiter Shade of Pale (Brooker-Reid) - 5:04
06. Good Stuff (Bibb) - 3:08
07. Message from Kaknas (Lindgren) - 4:08
08. Theme for Laura (Lindgren-Janson) - 3:09
09. Brutal Truth (Sand) - 4:42
10. Mr. Mann (Lindgren) - 3:55
11. SuperBoogie (Lindgren-Janson) - 4:26
12. Stockholm Underground (Lindgren) - 4:26
Дополнительная информация:
Состав:
Magnus Lindgren - flutes
Daniel Karlsson - Fender Rhodes
Henrik Janson - guitar
Lars DK Danielsson - electric bass
Per Lindvall - drums
Eric Bibb - guitar, vocals
Till Bronner - trumpet
Nils Landgren - trombone
Ida Sand - vocals
Отчёт EAC:
Exact Audio Copy V1.3 from 2. September 2016
EAC extraction logfile from 21. September 2018, 16:15
Magnus Lindgren / Stockholm Underground
Used drive : TSSTcorpCDDVDW SH-222AB Adapter: 1 ID: 0
Read mode : Secure
Utilize accurate stream : Yes
Defeat audio cache : Yes
Make use of C2 pointers : No
Read offset correction : 6
Overread into Lead-In and Lead-Out : No
Fill up missing offset samples with silence : Yes
Delete leading and trailing silent blocks : No
Null samples used in CRC calculations : Yes
Used interface : Native Win32 interface for Win NT & 2000
Gap handling : Appended to previous track
Used output format : User Defined Encoder
Selected bitrate : 1024 kBit/s
Quality : High
Add ID3 tag : No
Command line compressor : C:\Program Files (x86)\Exact Audio Copy\Flac\flac.exe
Additional command line options : -8 -V -T "ARTIST=%artist%" -T "TITLE=%title%" -T "ALBUM=%albumtitle%" -T "DATE=%year%" -T "TRACKNUMBER=%tracknr%" -T "GENRE=%genre%" -T "PERFORMER=%albuminterpret%" -T "COMPOSER=%composer%" %haslyrics%--tag-from-file=LYRICS="%lyricsfile%"%haslyrics% -T "ALBUMARTIST=%albumartist%" -T "DISCNUMBER=%cdnumber%" -T "TOTALDISCS=%totalcds%" -T "TOTALTRACKS=%numtracks%" -T "COMMENT=%comment%" %source% -o %dest%
TOC of the extracted CD
Track | Start | Length | Start sector | End sector
---------------------------------------------------------
1 | 0:00.00 | 5:58.71 | 0 | 26920
2 | 5:58.71 | 3:38.65 | 26921 | 43335
3 | 9:37.61 | 3:53.03 | 43336 | 60813
4 | 13:30.64 | 5:31.26 | 60814 | 85664
5 | 19:02.15 | 5:03.60 | 85665 | 108449
6 | 24:06.00 | 3:08.35 | 108450 | 122584
7 | 27:14.35 | 4:08.01 | 122585 | 141185
8 | 31:22.36 | 3:08.54 | 141186 | 155339
9 | 34:31.15 | 4:41.60 | 155340 | 176474
10 | 39:13.00 | 3:54.56 | 176475 | 194080
11 | 43:07.56 | 4:26.35 | 194081 | 214065
12 | 47:34.16 | 4:26.20 | 214066 | 234035
Track 1
Filename D:\EACRips\Magnus Lindgren - Stockholm Underground (2017) {ACT 9846-2} FLAC\01 - Fluting.wav
Pre-gap length 0:00:02.00
Peak level 98.4 %
Extraction speed 4.1 X
Track quality 100.0 %
Test CRC 58AB4AC7
Copy CRC 58AB4AC7
Accurately ripped (confidence 9) [54E0420E] (AR v2)
Copy OK
Track 2
Filename D:\EACRips\Magnus Lindgren - Stockholm Underground (2017) {ACT 9846-2} FLAC\02 - Penny Blue.wav
Peak level 96.3 %
Extraction speed 4.9 X
Track quality 100.0 %
Test CRC EE254EB3
Copy CRC EE254EB3
Accurately ripped (confidence 9) [44B430EB] (AR v2)
Copy OK
Track 3
Filename D:\EACRips\Magnus Lindgren - Stockholm Underground (2017) {ACT 9846-2} FLAC\03 - Chain Of Fools.wav
Peak level 97.2 %
Extraction speed 4.2 X
Track quality 99.9 %
Test CRC B6769A0C
Copy CRC B6769A0C
Accurately ripped (confidence 9) [0B6211A7] (AR v2)
Copy OK
Track 4
Filename D:\EACRips\Magnus Lindgren - Stockholm Underground (2017) {ACT 9846-2} FLAC\04 - Winter Wisdom.wav
Peak level 96.1 %
Extraction speed 5.0 X
Track quality 99.9 %
Test CRC 60A592D6
Copy CRC 60A592D6
Accurately ripped (confidence 9) [8044C1FA] (AR v2)
Copy OK
Track 5
Filename D:\EACRips\Magnus Lindgren - Stockholm Underground (2017) {ACT 9846-2} FLAC\05 - A Whiter Shade Of Pale.wav
Peak level 96.8 %
Extraction speed 5.2 X
Track quality 99.9 %
Test CRC B79BCB67
Copy CRC B79BCB67
Accurately ripped (confidence 9) [AF866EB6] (AR v2)
Copy OK
Track 6
Filename D:\EACRips\Magnus Lindgren - Stockholm Underground (2017) {ACT 9846-2} FLAC\06 - Good Stuff.wav
Peak level 97.0 %
Extraction speed 6.1 X
Track quality 100.0 %
Test CRC C1310DF1
Copy CRC C1310DF1
Accurately ripped (confidence 9) [401EE941] (AR v2)
Copy OK
Track 7
Filename D:\EACRips\Magnus Lindgren - Stockholm Underground (2017) {ACT 9846-2} FLAC\07 - Message From Kaknäs.wav
Peak level 96.1 %
Extraction speed 5.3 X
Track quality 99.9 %
Test CRC 0285438D
Copy CRC 0285438D
Accurately ripped (confidence 9) [2C2E5067] (AR v2)
Copy OK
Track 8
Filename D:\EACRips\Magnus Lindgren - Stockholm Underground (2017) {ACT 9846-2} FLAC\08 - Theme For Laura.wav
Peak level 95.1 %
Extraction speed 6.6 X
Track quality 100.0 %
Test CRC 2F534DC2
Copy CRC 2F534DC2
Accurately ripped (confidence 9) [1B94AEF8] (AR v2)
Copy OK
Track 9
Filename D:\EACRips\Magnus Lindgren - Stockholm Underground (2017) {ACT 9846-2} FLAC\09 - Brutal Truth.wav
Peak level 97.8 %
Extraction speed 7.2 X
Track quality 100.0 %
Test CRC C082B050
Copy CRC C082B050
Accurately ripped (confidence 9) [6F16FC42] (AR v2)
Copy OK
Track 10
Filename D:\EACRips\Magnus Lindgren - Stockholm Underground (2017) {ACT 9846-2} FLAC\10 - Mr. Mann.wav
Peak level 98.0 %
Extraction speed 7.2 X
Track quality 100.0 %
Test CRC CA1A2D6E
Copy CRC CA1A2D6E
Accurately ripped (confidence 9) [C321FFC1] (AR v2)
Copy OK
Track 11
Filename D:\EACRips\Magnus Lindgren - Stockholm Underground (2017) {ACT 9846-2} FLAC\11 - SuperBoogie.wav
Peak level 98.9 %
Extraction speed 7.7 X
Track quality 100.0 %
Test CRC 327D80A6
Copy CRC 327D80A6
Accurately ripped (confidence 9) [B309F431] (AR v2)
Copy OK
Track 12
Filename D:\EACRips\Magnus Lindgren - Stockholm Underground (2017) {ACT 9846-2} FLAC\12 - Stockholm Underground.wav
Peak level 100.0 %
Extraction speed 6.4 X
Track quality 99.9 %
Test CRC 486DDFC3
Copy CRC 486DDFC3
Accurately ripped (confidence 9) [C67EF837] (AR v2)
Copy OK
All tracks accurately ripped
No errors occurred
End of status report
---- CUETools DB Plugin V2.1.6
[CTDB TOCID: MrGTqPBaS5AktBnBPXa_OCz2VUw-] found
Submit result: MrGTqPBaS5AktBnBPXa_OCz2VUw- has been confirmed
Track | CTDB Status
1 | (58/59) Accurately ripped
2 | (58/59) Accurately ripped
3 | (58/59) Accurately ripped
4 | (58/59) Accurately ripped
5 | (58/59) Accurately ripped
6 | (58/59) Accurately ripped
7 | (58/59) Accurately ripped
8 | (58/59) Accurately ripped
9 | (58/59) Accurately ripped
10 | (58/59) Accurately ripped
11 | (58/59) Accurately ripped
12 | (58/59) Accurately ripped
==== Log checksum 02283396B501EA83486CEC47107ABA8CF6B1F4781E99E1D0DE1FEF7FD399515A ====
Cue Sheet (.cue):
REM GENRE Jazz
REM DATE 2017
REM DISCID B30C300C
REM COMMENT "ExactAudioCopy v1.3"
PERFORMER "Magnus Lindgren"
TITLE "Stockholm Underground"
FILE "01 - Fluting.wav" WAVE
TRACK 01 AUDIO
TITLE "Fluting"
PERFORMER "Magnus Lindgren"
INDEX 01 00:00:00
FILE "02 - Penny Blue.wav" WAVE
TRACK 02 AUDIO
TITLE "Penny Blue"
PERFORMER "Magnus Lindgren"
INDEX 01 00:00:00
FILE "03 - Chain of Fools.wav" WAVE
TRACK 03 AUDIO
TITLE "Chain of Fools"
PERFORMER "Magnus Lindgren"
INDEX 01 00:00:00
FILE "04 - Winter Wisdom.wav" WAVE
TRACK 04 AUDIO
TITLE "Winter Wisdom"
PERFORMER "Magnus Lindgren"
INDEX 01 00:00:00
FILE "05 - A Whiter Shade of Pale.wav" WAVE
TRACK 05 AUDIO
TITLE "A Whiter Shade of Pale"
PERFORMER "Magnus Lindgren"
INDEX 01 00:00:00
FILE "06 - Good Stuff.wav" WAVE
TRACK 06 AUDIO
TITLE "Good Stuff"
PERFORMER "Magnus Lindgren"
INDEX 01 00:00:00
FILE "07 - Message from Kaknas.wav" WAVE
TRACK 07 AUDIO
TITLE "Message from Kaknas"
PERFORMER "Magnus Lindgren"
INDEX 01 00:00:00
FILE "08 - Theme for Laura.wav" WAVE
TRACK 08 AUDIO
TITLE "Theme for Laura"
PERFORMER "Magnus Lindgren"
INDEX 01 00:00:00
FILE "09 - Brutal Truth.wav" WAVE
TRACK 09 AUDIO
TITLE "Brutal Truth"
PERFORMER "Magnus Lindgren"
INDEX 01 00:00:00
FILE "10 - Mr. Mann.wav" WAVE
TRACK 10 AUDIO
TITLE "Mr. Mann"
PERFORMER "Magnus Lindgren"
INDEX 01 00:00:00
FILE "11 - SuperBoogie.wav" WAVE
TRACK 11 AUDIO
TITLE "SuperBoogie"
PERFORMER "Magnus Lindgren"
INDEX 01 00:00:00
FILE "12 - Stockholm Underground.wav" WAVE
TRACK 12 AUDIO
TITLE "Stockholm Underground"
PERFORMER "Magnus Lindgren"
INDEX 01 00:00:00
Отчёт auCDtect Task manager:
-----------------------
DON'T MODIFY THIS FILE
-----------------------
PERFORMER: auCDtect Task Manager, ver. 1.6.0 RC1 build 1.6.0.1
Copyright (c) 2008-2010 y-soft. All rights reserved
http://y-soft.org
ANALYZER: auCDtect: CD records authenticity detector, version 0.8.2
Copyright (c) 2004 Oleg Berngardt. All rights reserved.
Copyright (c) 2004 Alexander Djourik. All rights reserved.
FILE: 12 - Stockholm Underground.flac
Size: 28237819 Hash: 4FC473BADF758A1C45EFFE73B14817BC Accuracy: -m0
Conclusion: CDDA 100%
Signature: 766DB3D48B5295856E7A039D6FFEF7651193DACC
FILE: 11 - SuperBoogie.flac
Size: 27653940 Hash: 283FA5AEE4669C23B1834977368ECBA5 Accuracy: -m0
Conclusion: CDDA 99%
Signature: 6CF97A1F33BDB5D6A7BCA7345723C70948BC6BFA
FILE: 10 - Mr. Mann.flac
Size: 26576916 Hash: 82F86094DCB411DE68B8CB79F604B83A Accuracy: -m0
Conclusion: CDDA 100%
Signature: 7B4524BAC941B004164C176354C9FA183BCB26C2
FILE: 09 - Brutal Truth.flac
Size: 32544645 Hash: C50225AC149DFDAC6C96B8D040AD2F23 Accuracy: -m0
Conclusion: CDDA 100%
Signature: 057C3BDD831A9F1E0E68971C5B1286032B299DD3
FILE: 08 - Theme for Laura.flac
Size: 18230005 Hash: 3BC4E67426D9AA33C704BC0D72523DAB Accuracy: -m0
Conclusion: CDDA 100%
Signature: 75EF1CDB63BCC7D6482696093F39A2755F2E51CE
FILE: 07 - Message from Kaknas.flac
Size: 24517880 Hash: 7DADD631E226B5E2F5E4C8CE39406EE2 Accuracy: -m0
Conclusion: CDDA 100%
Signature: 03B86A851A2D05AE54A2E9BEE46DC4CE89CD972A
FILE: 06 - Good Stuff.flac
Size: 20322099 Hash: B1EF955D8A2697155694FE1E3FFC5079 Accuracy: -m0
Conclusion: CDDA 100%
Signature: E1BBD8FD770E9B0C421A01DC30E0FBEBD7131ADC
FILE: 05 - A Whiter Shade of Pale.flac
Size: 28621492 Hash: 94718A0C6C1F1B273EBCACD7E652DBAF Accuracy: -m0
Conclusion: CDDA 100%
Signature: 0509CBF90050C861640F671F275F78F955D0E35E
FILE: 04 - Winter Wisdom.flac
Size: 31712184 Hash: 067633D725756DBF7096F3A7209E8857 Accuracy: -m0
Conclusion: CDDA 99%
Signature: BDE0CB02F44C241EF7A316F819C752986095348C
FILE: 03 - Chain of Fools.flac
Size: 24756522 Hash: 7465E0B456AC508826E0B61AFE62BE34 Accuracy: -m0
Conclusion: CDDA 100%
Signature: 2083806A9D0C8D65CB1856C5F5B1EF6AD253D857
FILE: 02 - Penny Blue.flac
Size: 22353517 Hash: 10140A04019C048A3A7F4F79BE76169F Accuracy: -m0
Conclusion: CDDA 100%
Signature: 766BB5B6DC91807C49146EF4D9326D5FFBA6B85A
FILE: 01 - Fluting.flac
Size: 38633365 Hash: 974DF41049A8E596D5FC9EDD73CAC79C Accuracy: -m0
Conclusion: CDDA 100%
[Профиль] [ЛС]
Показать сообщения:    
Ответить на тему

Текущее время: 29-Янв 06:05

Часовой пояс: UTC + 4



Вы не можете начинать темы
Вы не можете отвечать на сообщения
Вы не можете редактировать свои сообщения
Вы не можете удалять свои сообщения
Вы не можете голосовать в опросах
Вы не можете прикреплять файлы к сообщениям
Вы не можете скачивать файлы