Король Лев / The Lion King (2019) BDRip [H.264]

Ответить на тему
 
Автор Сообщение

Direktor_49 ®

Стаж: 3 года 2 месяца

Сообщений: 184

Откуда: Калининград

Создавать темы 29-Ноя-2019 15:27

[Цитировать]

Король Лев / The Lion King (2019) BDRip [H.264]- Производство: США / Fairview Entertainment, Walt Disney Pictures
Жанр: Мультфильм, мюзикл, драма, приключения, семейный
Перевод: Дублированный (Лицензия Blu-ray EUR)
Субтитры: Russian (full, SDH), English (full, SDH)
Продолжительность: 01:58:15
Режиссер: Джон Фавро
Описание:
История об отважном львенке по имени Симба. Знакомые с детства герои взрослеют, влюбляются, познают себя и окружающий мир, совершают ошибки и делают правильный выбор.

Возраст: 6+ (зрителям, достигшим 6 лет)
Рейтинг MPAA: PG (рекомендуется присутствие родителей)
Дата мировой премьеры: 9 июля 2019
Дата российской премьеры: 18 июля 2019, «WDSSPR»
Релиз от: OlLanDGroup
Реклама: Отсутствует
Качество видео: BDRip
Видео: AVC/H.264, 720x406, ~817 Kbps
Аудио: AAC, 2 ch, 64 kbps
MediaInfo:
General
Unique ID : 133399319700852809998425379612791516569 (0x645BC641857499930C01535E1699AD99)
Complete name : D:\OlLanDGroup\The.Lion.King.2019.BDRip(AVC).745Mb.OlLanDGroup.mkv
Format : Matroska
Format version : Version 4
File size : 747 MiB
Duration : 1 h 58 min
Overall bit rate : 883 kb/s
Movie name : The.Lion.King.2019.BDRip(AVC).745Mb.OlLanDGroup#Skandar#
Encoded date : UTC 2019-11-27 23:56:19
Writing application : mkvmerge v31.0.0 ('Dolores In A Shoestand') 64-bit
Writing library : libebml v1.3.6 + libmatroska v1.4.9
Video
ID : 1
Format : AVC
Format/Info : Advanced Video Codec
Format profile : High@L4.1
Format settings : CABAC / 10 Ref Frames
Format settings, CABAC : Yes
Format settings, ReFrames : 10 frames
Codec ID : V_MPEG4/ISO/AVC
Duration : 1 h 58 min
Bit rate : 817 kb/s
Width : 720 pixels
Height : 406 pixels
Display aspect ratio : 16:9
Frame rate mode : Constant
Frame rate : 23.976 (24000/1001) FPS
Color space : YUV
Chroma subsampling : 4:2:0
Bit depth : 8 bits
Scan type : Progressive
Bits/(Pixel*Frame) : 0.117
Stream size : 691 MiB (92%)
Title : The.Lion.King.2019.BDRip(AVC).745Mb.OlLanDGroup#Skandar#
Writing library : x264 core 146 r2538 121396c
Encoding settings : cabac=1 / ref=10 / deblock=1:-3:-3 / analyse=0x3:0x133 / me=umh / subme=11 / psy=1 / psy_rd=0.97:0.05 / mixed_ref=1 / me_range=48 / chroma_me=1 / trellis=2 / 8x8dct=1 / cqm=0 / deadzone=21,11 / fast_pskip=0 / chroma_qp_offset=-3 / threads=6 / lookahead_threads=1 / sliced_threads=0 / nr=0 / decimate=0 / interlaced=0 / bluray_compat=0 / constrained_intra=0 / bframes=11 / b_pyramid=2 / b_adapt=2 / b_bias=0 / direct=3 / weightb=1 / open_gop=0 / weightp=2 / keyint=240 / keyint_min=23 / scenecut=40 / intra_refresh=0 / rc_lookahead=40 / rc=2pass / mbtree=0 / bitrate=817 / ratetol=1.0 / qcomp=0.60 / qpmin=0 / qpmax=69 / qpstep=4 / cplxblur=20.0 / qblur=0.5 / vbv_maxrate=50000 / vbv_bufsize=62500 / nal_hrd=none / filler=0 / ip_ratio=1.40 / pb_ratio=1.30 / aq=1:1.00
Language : English
Default : Yes
Forced : No
Audio
ID : 2
Format : AAC LC SBR
Format/Info : Advanced Audio Codec Low Complexity with Spectral Band Replication
Commercial name : HE-AAC
Format settings : Explicit
Codec ID : A_AAC-2
Duration : 1 h 58 min
Bit rate : 64.0 kb/s
Channel(s) : 2 channels
Channel layout : L R
Sampling rate : 48.0 kHz
Frame rate : 23.438 FPS (2048 SPF)
Compression mode : Lossy
Delay relative to video : 31 ms
Stream size : 54.1 MiB (7%)
Title : DUB [BD EUR]
Language : Russian
Default : Yes
Forced : No
Text #1
ID : 3
Format : UTF-8
Codec ID : S_TEXT/UTF8
Codec ID/Info : UTF-8 Plain Text
Duration : 1 h 55 min
Bit rate : 68 b/s
Count of elements : 1371
Stream size : 58.1 KiB (0%)
Title : Full
Language : Russian
Default : No
Forced : No
Text #2
ID : 4
Format : UTF-8
Codec ID : S_TEXT/UTF8
Codec ID/Info : UTF-8 Plain Text
Duration : 1 h 47 min
Bit rate : 89 b/s
Count of elements : 1642
Stream size : 70.4 KiB (0%)
Title : SDH
Language : Russian
Default : No
Forced : No
Text #3
ID : 5
Format : UTF-8
Codec ID : S_TEXT/UTF8
Codec ID/Info : UTF-8 Plain Text
Duration : 1 h 50 min
Bit rate : 49 b/s
Count of elements : 1522
Stream size : 40.1 KiB (0%)
Title : Full
Language : English
Default : No
Forced : No
Text #4
ID : 6
Format : UTF-8
Codec ID : S_TEXT/UTF8
Codec ID/Info : UTF-8 Plain Text
Duration : 1 h 52 min
Bit rate : 55 b/s
Count of elements : 1710
Stream size : 45.4 KiB (0%)
Title : SDH
Language : English
Default : No
Forced : No
Menu
00:00:00.000 : en:Circle Of Life/Nants' Ingonyama
00:04:50.497 : en:Life's Not Fair
00:10:51.067 : en:Everything The Light Touches
00:17:47.691 : en:I Just Can't Wait To Be King
00:23:53.013 : en:Elephant Graveyard
00:30:00.131 : en:Under The Stars
00:33:05.066 : en:Be Prepared
00:37:09.309 : en:Stampede
00:43:42.911 : en:Scar Takes Over
00:50:47.335 : en:Timon And Pumbaa
00:55:02.715 : en:Hakuna Matata
00:59:48.458 : en:Scar's Kingdom
01:06:27.233 : en:Line Of Indifference
01:14:32.091 : en:The Lion Sleeps Tonight
01:18:26.409 : en:Can You Feel The Love Tonight
01:23:07.899 : en:He Lives In You
01:28:04.654 : en:Spirit
01:33:10.876 : en:Simba Confronts Scar
01:37:13.743 : en:Battle For Pride Rock
01:44:39.189 : en:The Rightful King
01:47:47.335 : en:End Credits/Never Too Late
Скриншоты:
[Профиль] [ЛС]
Показать сообщения:    
Ответить на тему

Текущее время: 25-Янв 18:26

Часовой пояс: UTC + 4



Вы не можете начинать темы
Вы не можете отвечать на сообщения
Вы не можете редактировать свои сообщения
Вы не можете удалять свои сообщения
Вы не можете голосовать в опросах
Вы не можете прикреплять файлы к сообщениям
Вы не можете скачивать файлы