(Hi NRG, Downtempo, Synth-pop) [CD] Stacey Q - The Best Of Stacey Q - 1990, FLAC (image+.cue), lossless

Ответить на тему
 
Автор Сообщение

Direktor_49 ®

Стаж: 3 года 2 месяца

Сообщений: 185

Откуда: Калининград

Создавать темы 24-Ноя-2019 22:57

[Цитировать]

Stacey Q / The Best Of Stacey Q
Жанр: Hi NRG, Downtempo, Synth-pop
Носитель: CD
Страна-производитель диска (релиза): Europe
Год издания: 1990
Издатель (лейбл): Atlantic
Номер по каталогу: 9031-53556
Страна исполнителя (группы): USA
Аудиокодек: FLAC (*.flac)
Тип рипа: image+.cue
Продолжительность: 0:55:10:50
Источник: собственный рип
Наличие сканов в содержимом раздачи: нет
Треклист:
1 Two Of Hearts 3:59
2 Give You All My Love 4:23
3 I Love You 4:35
4 Incognito 5:21
5 Better Than Heaven 3:33
6 Favorite Things 4:10
7 Don't Make A Fool Of Yourself 4:08
8 We Connect 4:10
9 Too Good To Me 5:50
10 Insecurity 3:27
11 Kiss It All Goodbye 3:47
12 Heartbeat 4:43
Лог создания рипа
Exact Audio Copy V1.0 beta 3 from 29. August 2011
Отчёт EAC об извлечении, выполненном 24. ноября 2019, 23:26
Stacey Q / The Best Of Stacey Q
Дисковод: TSSTcorpCDDVDW SH-224DB Adapter: 1 ID: 0
Режим чтения : Достоверность
Использование точного потока : Да
Отключение кэша аудио : Да
Использование указателей C2 : Нет
Коррекция смещения при чтении : 6
Способность читать области Lead-in и Lead-out : Нет
Заполнение пропущенных сэмплов тишиной : Да
Удаление блоков с тишиной в начале и конце : Нет
При вычислениях CRC использовались нулевые сэмплы : Да
Интерфейс : Встроенный Win32-интерфейс для Win NT/2000
Выходной формат : Пользовательский кодировщик
Выбранный битрейт : 128 kBit/s
Качество : Высокий
Добавление ID3-тега : Нет
Утилита сжатия : C:\Program Files (x86)\FLAC\flac.exe
Дополнительные параметры : -V -8 -T "Date=%year%" -T "Genre=%genre%" %source%
TOC извлечённого CD
Трек | Старт | Длительность | Начальный сектор | Конечный сектор
---------------------------------------------------------------------
1 | 0:00.33 | 7:16.45 | 33 | 32777
2 | 7:17.03 | 4:27.55 | 32778 | 52857
3 | 11:44.58 | 4:03.65 | 52858 | 71147
4 | 15:48.48 | 5:24.37 | 71148 | 95484
5 | 21:13.10 | 3:34.65 | 95485 | 111599
6 | 24:48.00 | 4:10.58 | 111600 | 130407
7 | 28:58.58 | 4:08.65 | 130408 | 149072
8 | 33:07.48 | 4:13.35 | 149073 | 168082
9 | 37:21.08 | 5:49.42 | 168083 | 194299
10 | 43:10.50 | 3:30.10 | 194300 | 210059
11 | 46:40.60 | 3:46.28 | 210060 | 227037
12 | 50:27.13 | 4:43.70 | 227038 | 248332
Характеристики диапазона извлечения и сообщения об ошибках
Выбранный диапазон
Имя файла C:\EAC\Stacey Q - The Best Of Stacey Q - 1990 CD\Stacey Q - The Best Of Stacey Q.wav
Пиковый уровень 100.0 %
Скорость извлечения 2.3 X
Качество диапазона 100.0 %
CRC теста 00B4EEDF
CRC копии 00B4EEDF
Копирование... OK
Ошибок не произошло
AccurateRip: сводка
Трек 1 отсутствует в базе данных
Трек 2 отсутствует в базе данных
Трек 3 отсутствует в базе данных
Трек 4 отсутствует в базе данных
Трек 5 отсутствует в базе данных
Трек 6 отсутствует в базе данных
Трек 7 отсутствует в базе данных
Трек 8 отсутствует в базе данных
Трек 9 отсутствует в базе данных
Трек 10 отсутствует в базе данных
Трек 11 отсутствует в базе данных
Трек 12 отсутствует в базе данных
Ни одного трека нет в базе AccurateRip
Конец отчёта
==== Контрольная сумма отчёта 5709F6C46C253E1C187C77749FCEDBD4A69F8B52DE8C11FB2AC48A167DA014F1 ====
Содержание индексной карты (.CUE)
REM DATE 1990
REM DISCID A80CEF0C
REM COMMENT "ExactAudioCopy v1.0b3"
PERFORMER "Stacey Q"
TITLE "The Best Of Stacey Q"
FILE "Stacey Q - The Best Of Stacey Q.flac" WAVE
TRACK 01 AUDIO
TITLE " Two Of Hearts"
PERFORMER "Stacey Q"
FLAGS DCP
INDEX 00 00:00:00
INDEX 01 00:00:33
TRACK 02 AUDIO
TITLE "Give You All My Love"
PERFORMER "Stacey Q"
FLAGS DCP
INDEX 00 07:14:20
INDEX 01 07:17:03
TRACK 03 AUDIO
TITLE " I Love You"
PERFORMER "Stacey Q"
FLAGS DCP
INDEX 00 11:42:33
INDEX 01 11:44:58
TRACK 04 AUDIO
TITLE "Incognito"
PERFORMER "Stacey Q"
FLAGS DCP
INDEX 00 15:46:03
INDEX 01 15:48:48
TRACK 05 AUDIO
TITLE "Better Than Heaven"
PERFORMER "Stacey Q"
FLAGS DCP
INDEX 00 21:10:33
INDEX 01 21:13:10
TRACK 06 AUDIO
TITLE " Favorite Things"
PERFORMER "Stacey Q"
FLAGS DCP
INDEX 00 24:44:48
INDEX 01 24:48:00
TRACK 07 AUDIO
TITLE "Don't Make A Fool Of Yourself"
PERFORMER "Stacey Q"
FLAGS DCP
INDEX 00 28:57:33
INDEX 01 28:58:58
TRACK 08 AUDIO
TITLE "We Connect"
PERFORMER "Stacey Q"
FLAGS DCP
INDEX 00 33:06:58
INDEX 01 33:07:48
TRACK 09 AUDIO
TITLE "Too Good To Me"
PERFORMER "Stacey Q"
FLAGS DCP
INDEX 00 37:19:50
INDEX 01 37:21:08
TRACK 10 AUDIO
TITLE "Insecurity"
PERFORMER "Stacey Q"
FLAGS DCP
INDEX 00 43:09:68
INDEX 01 43:10:50
TRACK 11 AUDIO
TITLE "Kiss It All Goodbye"
PERFORMER "Stacey Q"
FLAGS DCP
INDEX 00 46:39:58
INDEX 01 46:40:60
TRACK 12 AUDIO
TITLE " Heartbeat"
PERFORMER "Stacey Q"
FLAGS DCP
INDEX 00 50:26:33
INDEX 01 50:27:13
Доп. информация: Издание редкое. Страна производитель нигде не указана, потому в описании указано Europe.
[Профиль] [ЛС]
Показать сообщения:    
Ответить на тему

Текущее время: 29-Янв 06:04

Часовой пояс: UTC + 4



Вы не можете начинать темы
Вы не можете отвечать на сообщения
Вы не можете редактировать свои сообщения
Вы не можете удалять свои сообщения
Вы не можете голосовать в опросах
Вы не можете прикреплять файлы к сообщениям
Вы не можете скачивать файлы