Большой юбилейный концерт Александры Пахмутовой 2019.11.10 [2019, Pop, HDTV 1080i]

Ответить на тему
 
Автор Сообщение

Direktor_49 ®

Стаж: 3 года 5 месяцев

Сообщений: 215

Откуда: Калининград

Создавать темы 11-Ноя-2019 10:55

[Цитировать]

Большой юбилейный концерт Александры Пахмутовой 2019.11.10
Жанр: Pop
Продолжительность: 02:38:00
Год выпуска: 2019
Описание: К 90-летию со дня рождения.
В России не найти ни одного человека, который не знал бы ее песен. Александра Николаевна Пахмутова – настоящая легенда, народная артистка СССР, один из самых любимых и талантливых композиторов России. Ее музыкальная биография насчитывает свыше 400 песен, которые знают и поют миллионы людей в нашей стране.
Ее мелодии звучали на стройках, на комсомольских собраниях, на спортивных аренах и просто на танцплощадках.
Ей одинаково хорошо удаются и энергичные марши ("Главное, ребята, сердцем не стареть", "Любовь, комсомол и весна!") и тонкие лирические мелодии ("Нежность", "Старый клен", "Как молоды мы были"). "Трус не играет в хоккей" стал настоящим спортивным гимном, песню "Надежда" космонавты до сих пор слушают перед полетом, а песня "До свидания, Москва, до свидания!" для многих стала самым ярким событием Олимпиады-80.
Юбилей Александры Пахмутовой в Государственном академическом Большом театре России – хороший повод вспомнить и спеть любимые песни любимого композитора.
Весь вечер на сцене Большого театра – Александра Пахмутова, а также артисты самых разных жанров, среди которых Денис Мацуев и Лев Лещенко, Сергей Полунин и Хибла Герзмава, Евгений Миронов и Сергей Безруков, группа "Любэ" и Тамара Гвердцители, Кубанский казачий хор и оркестр Большого театра России. Дирижировать концертом будут Михаил Плетнев и Юрий Башмет. В программе заявлены и премьеры, в том числе фрагменты новых балетов, а также прозвучит симфоническая музыка композитора.
качество: HDTV 1080i
формат: TS
Видео кодек: H.264
Аудио кодек: MP2
Видео: H264; 1920x1080 (16:9); 25.000 fps; ~9 793 kb/s
Аудио: MPEG Audio 48000Hz stereo 192 Кбит/сек
Отчёт MediaInfo / BDInfo
General
ID : 1 (0x1)
Complete name : H:\1\Большой юбилейный концерт Александры Пахмутовой 2019.11.10.ts
Format : MPEG-TS
File size : 11.6 GiB
Duration : 2 h 38 min
Overall bit rate mode : Variable
Overall bit rate : 10.5 Mb/s
Video
ID : 2292 (0x8F4)
Menu ID : 2291 (0x8F3)
Format : AVC
Format/Info : Advanced Video Codec
Format profile : Main@L4
Format settings : CABAC / 4 Ref Frames
Format settings, CABAC : Yes
Format settings, Reference fra : 4 frames
Codec ID : 27
Duration : 2 h 38 min
Bit rate : 9 793 kb/s
Width : 1 920 pixels
Height : 1 080 pixels
Display aspect ratio : 16:9
Frame rate : 25.000 FPS
Standard : Component
Color space : YUV
Chroma subsampling : 4:2:0
Bit depth : 8 bits
Scan type : Interlaced
Scan type, store method : Separated fields
Scan order : Top Field First
Bits/(Pixel*Frame) : 0.189
Stream size : 10.8 GiB (93%)
Color range : Limited
Color primaries : BT.709
Transfer characteristics : BT.709
Matrix coefficients : BT.709
Audio
ID : 2295 (0x8F7)
Menu ID : 2291 (0x8F3)
Format : MPEG Audio
Format version : Version 1
Format profile : Layer 2
Codec ID : 3
Duration : 2 h 38 min
Bit rate mode : Constant
Bit rate : 192 kb/s
Channel(s) : 2 channels
Sampling rate : 48.0 kHz
Frame rate : 41.667 FPS (1152 SPF)
Compression mode : Lossy
Stream size : 218 MiB (2%)
Language : English
Скриншоты
[Профиль] [ЛС]
Показать сообщения:    
Ответить на тему

Текущее время: 04-Апр 08:31

Часовой пояс: UTC + 4



Вы не можете начинать темы
Вы не можете отвечать на сообщения
Вы не можете редактировать свои сообщения
Вы не можете удалять свои сообщения
Вы не можете голосовать в опросах
Вы не можете прикреплять файлы к сообщениям
Вы не можете скачивать файлы